(Classical) Wolfgang Amadeus Mozart — Symphonies K 318, 385, 425, Anh 214, 75, 97/73m, Anh 223/19a & 128 (Saulius Sondeckis / Сондецкис) — 2006, APE (image+.cue) lossless


 

[Цитировать]

Symphonies K 318, 385, 425, Anh 214, 75, 97/73m, Anh 223/19a & 128-
Жанр: Classical
Страна-производитель дисков: Pоссия
Год издания дисков: 2006
Год записи фонограмм: 1991
Издатель (лейбл): Мелодия
Номера по каталогу: MEL CD 10 00974 / MEL CD 10 00975
Композитор: Wolfgang Amadeus Mozart
Исполнительский коллектив: Lithuanuan Chamber Orchestra under Saulius Sondeckis
Аудио кодек: ape
Тип рипа: image+.cue
Битрейт аудио: lossless
Продолжительность: 02h06'41"
Источник: web
Наличие сканов в содержимом раздачи: нет-

Треклист


CD 1 [01h03'19"]
(01) Symphony (Overture) № 32 G-Dur K 318 – Allegro spiritozo – Andante [07'58"]
(02-05) Symphony № 35 D-Dur K 385 «Haffner» [24'30"]
(06-09) Symphony № 36 C-Dur K 425 «Linz» [30'51"]-

CUE

REM GENRE "Classical"
REM DATE "2006"
PERFORMER "Mozart"
TITLE "CD1"
FILE "CD1.ape" WAVE
  TRACK 01 AUDIO
    PERFORMER "Mozart"
    TITLE "Symphony (Overture) № 32 G-Dur K 318 – Allegro spiritozo – Andante"
    INDEX 01 00:00:00
  TRACK 02 AUDIO
    PERFORMER "Mozart"
    TITLE "Symphony № 35 D-Dur K 385 «Haffner» – I. Allegro con spirito"
    INDEX 01 07:57:63
  TRACK 03 AUDIO
    PERFORMER "Mozart"
    TITLE "Symphony № 35 D-Dur K 385 «Haffner» – II. Andante"
    INDEX 01 16:11:11
  TRACK 04 AUDIO
    PERFORMER "Mozart"
    TITLE "Symphony № 35 D-Dur K 385 «Haffner» – III. Menuetto"
    INDEX 01 25:01:02
  TRACK 05 AUDIO
    PERFORMER "Mozart"
    TITLE "Symphony № 35 D-Dur K 385 «Haffner» – IV. Presto"
    INDEX 01 28:20:33
  TRACK 06 AUDIO
    PERFORMER "Mozart"
    TITLE "Symphony № 36 C-Dur K 425 «Linz» – I. Adagio – Allegro spiritoso"
    INDEX 01 32:28:09
  TRACK 07 AUDIO
    PERFORMER "Mozart"
    TITLE "Symphony № 36 C-Dur K 425 «Linz» – II. Poco Adagio"
    INDEX 01 42:46:65
  TRACK 08 AUDIO
    PERFORMER "Mozart"
    TITLE "Symphony № 36 C-Dur K 425 «Linz» – III. Menuetto"
    INDEX 01 51:55:47
  TRACK 09 AUDIO
    PERFORMER "Mozart"
    TITLE "Symphony № 36 C-Dur K 425 «Linz» – IV. Presto"
    INDEX 01 55:39:58
-
CD 2 [01h03'22"]
(01-03) Symphony B-Dur K Anh 214/45b «№ 55» [09'22"]
(04-07) Symphony F-Dur K 75 «№ 42» [14'15"]
(08-11) Symphony D-Dur K 97/73m «№ 47» [10'29"]
(12-15) Symphony F-Dur K Anh 223/19a [16'59"]
(16-18) Symphony № 16 C-Dur K 128 [12'27"]-

CUE

REM GENRE "Classical"
REM DATE "2006"
PERFORMER "Mozart"
TITLE "CD2"
FILE "CD2.ape" WAVE
  TRACK 01 AUDIO
    PERFORMER "Mozart"
    TITLE "Symphony B-Dur K Anh 214/45b «№ 55» – I. Allegro"
    INDEX 01 00:00:00
  TRACK 02 AUDIO
    PERFORMER "Mozart"
    TITLE "Symphony B-Dur K Anh 214/45b «№ 55» – II. Andante"
    INDEX 01 02:43:74
  TRACK 03 AUDIO
    PERFORMER "Mozart"
    TITLE "Symphony B-Dur K Anh 214/45b «№ 55» – III. Allegro molto"
    INDEX 01 08:06:54
  TRACK 04 AUDIO
    PERFORMER "Mozart"
    TITLE "Symphony F-Dur K 75 «№ 42» – I. Allegro"
    INDEX 01 09:21:47
  TRACK 05 AUDIO
    PERFORMER "Mozart"
    TITLE "Symphony F-Dur K 75 «№ 42» – II. Minuetto"
    INDEX 01 12:19:65
  TRACK 06 AUDIO
    PERFORMER "Mozart"
    TITLE "Symphony F-Dur K 75 «№ 42» – III. Andantino"
    INDEX 01 15:44:61
  TRACK 07 AUDIO
    PERFORMER "Mozart"
    TITLE "Symphony F-Dur K 75 «№ 42» – IV. Allegro"
    INDEX 01 20:59:63
  TRACK 08 AUDIO
    PERFORMER "Mozart"
    TITLE "Symphony D-Dur K 97/73m «№ 47» – I. Allegro"
    INDEX 01 23:36:52
  TRACK 09 AUDIO
    PERFORMER "Mozart"
    TITLE "Symphony D-Dur K 97/73m «№ 47» – II. Andante"
    INDEX 01 26:16:44
  TRACK 10 AUDIO
    PERFORMER "Mozart"
    TITLE "Symphony D-Dur K 97/73m «№ 47» – III. Minuetto"
    INDEX 01 29:39:04
  TRACK 11 AUDIO
    PERFORMER "Mozart"
    TITLE "Symphony D-Dur K 97/73m «№ 47» – IV. Presto"
    INDEX 01 32:15:40
  TRACK 12 AUDIO
    PERFORMER "Mozart"
    TITLE "Symphony F-Dur K Anh 223/19a – I. Allegro"
    INDEX 01 33:56:38
  TRACK 13 AUDIO
    PERFORMER "Mozart"
    TITLE "Symphony F-Dur K Anh 223/19a – II. Andante"
    INDEX 01 39:27:26
  TRACK 14 AUDIO
    PERFORMER "Mozart"
    TITLE "Symphony F-Dur K Anh 223/19a – III. Menuetto"
    INDEX 01 45:56:29
  TRACK 15 AUDIO
    PERFORMER "Mozart"
    TITLE "Symphony F-Dur K Anh 223/19a – IV. Molto allegro"
    INDEX 01 48:33:36
  TRACK 16 AUDIO
    PERFORMER "Mozart"
    TITLE "Symphony № 16 C-Dur K 128 – I. Allegro maestoso"
    INDEX 01 50:55:13
  TRACK 17 AUDIO
    PERFORMER "Mozart"
    TITLE "Symphony № 16 C-Dur K 128 – II. Andantino grazioso"
    INDEX 01 55:25:42
  TRACK 18 AUDIO
    PERFORMER "Mozart"
    TITLE "Symphony № 16 C-Dur K 128 – III. Allegro (Rondeau)"
    INDEX 01 59:23:53

-

auCDtect log

-----------------------
DON'T MODIFY THIS FILE
-----------------------
PERFORMER: auCDtect Task Manager, ver. 1.5.1RC4 build 1.5.1.5
Copyright (c) 2008-2010 y-soft. All rights reserved
http://y-soft.org
ANALYZER: auCDtect: CD records authenticity detector, version 0.8.2
Copyright (c) 2004 Oleg Berngardt. All rights reserved.
Copyright (c) 2004 Alexander Djourik. All rights reserved.
FILE: CD2.wav
  Size: 670642268 Hash: 3358BF61EE954372728A01AFA82DAE4A Accuracy: -m0
  Conclusion: CDDA 100%
  Signature: B0525F05F20F8CB6F4727F6A302A4DEEB8AAF2B4
FILE: CD1.wav
  Size: 670127180 Hash: 854931AC2A1F5BE93193B5AEFA4DA68F Accuracy: -m0
  Conclusion: CDDA 100%
  Signature: 580A3EBF783E75C2560CFAB0DDD54E88FBEF5C41

-

Spectrogram


-



Показать сообщения:    

Текущее время: 09-Дек 20:32

Часовой пояс: UTC + 3


Вы не можете начинать темы
Вы не можете отвечать на сообщения
Вы не можете редактировать свои сообщения
Вы не можете удалять свои сообщения
Вы не можете голосовать в опросах
Вы не можете прикреплять файлы к сообщениям
Вы не можете скачивать файлы