(Classical) Jean Cocteau & Les Six: Tailleferre, Honegger, Poulenc, Milhaud, Auric, Durey - Royal Philharmonic Orchestra, Hermann Scherchen, Minneapolis Symphony Orchestra, Dimitri Mitropoulos - 2008, FLAC (image+.cue) lossless


 

[Цитировать]

Jean Cocteau & Les Six: Tailleferre, Honegger, Poulenc, Milhaud, Auric, Durey - Royal Philharmonic Orchestra, Hermann Scherchen, Minneapolis Symphony Orchestra, Dimitri Mitropoulos
Жанр: Classical
Страна-производитель диска: UK
Год издания диска: 2008
Издатель (лейбл): Cherry Red Records
Дата записи: 1945-1953
Аудиокодек: FLAC
Тип рипа: image+.cue
Битрейт аудио: lossless
Продолжительность: 79:26
Источник: собственный рип
Наличие сканов в содержимом раздачи: да
Треклист:
Germaine Tailleferre
[1] Overture for Orchestra (1931)
Orchestre de la Société des Concerts du Conservatoire
Georges Tzipine

Recorded in 1953
Arthur Honegger
[2] Pacific 231 (1923)
[3] Pastorale d'été (1920)
Royal Philharmonic Orchestra
Hermann Scherchen

Recorded in 1954
Francis Poulenc
[4]-[9] Les Biches (1923)
Ballet Suite
Orchestre de la Société des Concerts du Conservatoire
Roger Désormière

Recorded in 1951
Darius Milhaud
[10]-[13] Suite for Violin, Clarinet & Piano, Op.157b (1936)
Reginald Kell clarinet
Melvin Ritter violin
Joel Rosen piano
Recorded in 1953
[14] Le Boeuf le toit or 'The Nothing Doing Bar' (1919)
Minneapolis Symphony Orchestra
Dimitri Mitropoulos

Recorded in 1945
Georges Auric
[15] Orphée
Theme from the Original Film Soundtrack (1949)
Jacques Météhen conductor
Recorded in 1949
[16] La Belle et la bête
Theme from the Original Film Soundtrack (1946)
Roger Désormière conductor
Recorded in 1946
[17] L'Aigle à deux têtes
Theme from the Original Film Soundtrack (1947)
Louis Durey
[18] Le Printemps au Fond de la Mer - Poeme of Cocteau (1920)
Denise Duval soprano
Wind Instruments of the Conservatoire Orchestra
Georges Tzipine

Recorded in 1953
Исполнители:
Orchestre de la Société des Concerts du Conservatoire
Georges Tzipine
Royal Philharmonic Orchestra
Hermann Scherchen
Orchestre de la Société des Concerts du Conservatoire
Roger Désormière
Reginald Kell
clarinet
Melvin Ritter violin
Joel Rosen piano
Minneapolis Symphony Orchestra
Dimitri Mitropoulos
Jacques Météhen
conductor
Roger Désormière conductor
Denise Duval soprano
Wind Instruments of the Conservatoire Orchestra

Лог создания рипа

Exact Audio Copy V1.0 beta 3 from 29. August 2011
EAC extraction logfile from 27. May 2015, 3:02
- / Jean Cocteau & Les Six
Used drive : HL-DT-STDVDRAM GU70N Adapter: 0 ID: 0
Read mode : SecureUtilize accurate stream : YesDefeat audio cache : YesMake use of C2 pointers : No
Read offset correction : 48Overread into Lead-In and Lead-Out : NoFill up missing offset samples with silence : YesDelete leading and trailing silent blocks : NoNull samples used in CRC calculations : YesUsed interface : Native Win32 interface for Win NT & 2000
Used output format : User Defined EncoderSelected bitrate : 128 kBit/sQuality : HighAdd ID3 tag : NoCommand line compressor : C:\Program Files (x86)\Exact Audio Copy\Flac\flac.exeAdditional command line options : -V -8 -T "Date=%year%" -T "Genre=%genre%" %source%
TOC of the extracted CD
Track | Start | Length | Start sector | End sector --------------------------------------------------------- 1 | 0:00.00 | 4:25.60 | 0 | 19934 2 | 4:25.60 | 6:25.11 | 19935 | 48820 3 | 10:50.71 | 8:36.47 | 48821 | 87567 4 | 19:27.43 | 3:38.51 | 87568 | 103968 5 | 23:06.19 | 3:46.44 | 103969 | 120962 6 | 26:52.63 | 3:35.18 | 120963 | 137105 7 | 30:28.06 | 5:25.06 | 137106 | 161486 8 | 35:53.12 | 3:01.53 | 161487 | 175114 9 | 38:54.65 | 3:25.38 | 175115 | 190527 10 | 42:20.28 | 1:35.09 | 190528 | 197661 11 | 43:55.37 | 2:29.00 | 197662 | 208836 12 | 46:24.37 | 1:45.45 | 208837 | 216756 13 | 48:10.07 | 5:03.13 | 216757 | 239494 14 | 53:13.20 | 13:45.28 | 239495 | 301397 15 | 66:58.48 | 1:53.73 | 301398 | 309945 16 | 68:52.46 | 2:00.13 | 309946 | 318958 17 | 70:52.59 | 1:52.21 | 318959 | 327379 18 | 72:45.05 | 6:40.46 | 327380 | 357425
Range status and errors
Selected range
Filename C:\temp\Jean Cocteau & Les Six\Jean Cocteau & Les Six.wav
Peak level 99.8 % Extraction speed 2.3 X Range quality 100.0 % Test CRC DE4A48B8 Copy CRC DE4A48B8 Copy OK
No errors occurred
AccurateRip summary
Track 1 accurately ripped (confidence 1) [48F240C1] (AR v2)Track 2 accurately ripped (confidence 1) [2AC51B3A] (AR v2)Track 3 accurately ripped (confidence 1) [12E73624] (AR v2)Track 4 accurately ripped (confidence 1) [F7DDB336] (AR v2)Track 5 accurately ripped (confidence 1) [3E73B8D4] (AR v2)Track 6 accurately ripped (confidence 1) [19C6B5FB] (AR v2)Track 7 accurately ripped (confidence 1) [761659BC] (AR v2)Track 8 accurately ripped (confidence 1) [B77E0D2C] (AR v2)Track 9 accurately ripped (confidence 1) [65E9D07C] (AR v2)Track 10 accurately ripped (confidence 1) [72A40C2D] (AR v2)Track 11 accurately ripped (confidence 1) [B3320B4B] (AR v2)Track 12 accurately ripped (confidence 1) [28078A44] (AR v2)Track 13 accurately ripped (confidence 1) [98D52699] (AR v2)Track 14 accurately ripped (confidence 1) [9D56C752] (AR v2)Track 15 accurately ripped (confidence 1) [220797CF] (AR v2)Track 16 accurately ripped (confidence 1) [F38824A2] (AR v2)Track 17 accurately ripped (confidence 1) [38E257F3] (AR v2)Track 18 accurately ripped (confidence 1) [7ED70863] (AR v2)
All tracks accurately ripped
End of status report
==== Log checksum 286163A91B19826063DAAFAE2AAD51F56D45D3045B939CA35C52F73ECD262499 ====



Показать сообщения:    

Текущее время: 10-Дек 02:15

Часовой пояс: UTC + 3


Вы не можете начинать темы
Вы не можете отвечать на сообщения
Вы не можете редактировать свои сообщения
Вы не можете удалять свои сообщения
Вы не можете голосовать в опросах
Вы не можете прикреплять файлы к сообщениям
Вы не можете скачивать файлы