(Classical) Jean Sibelius - Scaramouche - Turku Philharmonic Orchestra, Leif Segerstam - 2015, FLAC (image+.cue) lossless


 

[Цитировать]

Jean Sibelius - Scaramouche - Turku Philharmonic Orchestra, Leif Segerstam
Жанр: Classical
Год издания диска: 2015
Издатель (лейбл): Naxos
Номер по каталогу: 8.573511
Дата записи: 2014
Аудиокодек: FLAC
Тип рипа: image+.cue
Битрейт аудио: lossless
Продолжительность: 71:01
Источник: собственный рип
Наличие сканов в содержимом раздачи: да
Треклист:
Jean Sibelius (1865-1957)
Scaramouche, Op. 71 (1913)
Complete Ballet
[1]-[10] Act I
[11]-[21] Act II
Исполнители:
Turku Philharmonic Orchestra
Leif Segerstam

Лог создания рипа

Exact Audio Copy V1.1 from 23. June 2015
EAC extraction logfile from 27. January 2016, 22:44
Turku Philharmonic Orchestra, Leif Segerstam / Sibelius - Scaramouche
Used drive : HL-DT-STDVDRAM GU70N Adapter: 1 ID: 0
Read mode : SecureUtilize accurate stream : YesDefeat audio cache : YesMake use of C2 pointers : No
Read offset correction : 48Overread into Lead-In and Lead-Out : NoFill up missing offset samples with silence : YesDelete leading and trailing silent blocks : NoNull samples used in CRC calculations : YesUsed interface : Native Win32 interface for Win NT & 2000
Used output format : User Defined EncoderSelected bitrate : 128 kBit/sQuality : HighAdd ID3 tag : NoCommand line compressor : C:\Program Files (x86)\Exact Audio Copy\Flac\flac.exeAdditional command line options : -V -8 -T "Date=%year%" -T "Genre=%genre%" %source%
TOC of the extracted CD
Track | Start | Length | Start sector | End sector --------------------------------------------------------- 1 | 0:00.00 | 0:55.61 | 0 | 4185 2 | 0:55.61 | 2:10.00 | 4186 | 13935 3 | 3:05.61 | 3:33.48 | 13936 | 29958 4 | 6:39.34 | 2:52.30 | 29959 | 42888 5 | 9:31.64 | 7:48.25 | 42889 | 78013 6 | 17:20.14 | 3:06.46 | 78014 | 92009 7 | 20:26.60 | 0:48.63 | 92010 | 95672 8 | 21:15.48 | 2:19.54 | 95673 | 106151 9 | 23:35.27 | 0:41.25 | 106152 | 109251 10 | 24:16.52 | 6:42.44 | 109252 | 139445 11 | 30:59.21 | 0:22.61 | 139446 | 141156 12 | 31:22.07 | 0:28.29 | 141157 | 143285 13 | 31:50.36 | 1:26.62 | 143286 | 149797 14 | 33:17.23 | 0:24.55 | 149798 | 151652 15 | 33:42.03 | 3:25.60 | 151653 | 167087 16 | 37:07.63 | 2:31.16 | 167088 | 178428 17 | 39:39.04 | 7:47.10 | 178429 | 213463 18 | 47:26.14 | 3:30.32 | 213464 | 229245 19 | 50:56.46 | 4:00.01 | 229246 | 247246 20 | 54:56.47 | 15:32.18 | 247247 | 317164 21 | 70:28.65 | 0:30.10 | 317165 | 319424
Range status and errors
Selected range
Filename C:\temp\Naxos_8.573511 - Sibelius - Scaramouche\Sibelius - Scaramouche.wav
Peak level 97.7 % Extraction speed 2.3 X Range quality 100.0 % Test CRC 0968ABDF Copy CRC 0968ABDF Copy OK
No errors occurred
AccurateRip summary
Track 1 not present in databaseTrack 2 not present in databaseTrack 3 not present in databaseTrack 4 not present in databaseTrack 5 not present in databaseTrack 6 not present in databaseTrack 7 not present in databaseTrack 8 not present in databaseTrack 9 not present in databaseTrack 10 not present in databaseTrack 11 not present in databaseTrack 12 not present in databaseTrack 13 not present in databaseTrack 14 not present in databaseTrack 15 not present in databaseTrack 16 not present in databaseTrack 17 not present in databaseTrack 18 not present in databaseTrack 19 not present in databaseTrack 20 not present in databaseTrack 21 not present in database
None of the tracks are present in the AccurateRip database
End of status report
==== Log checksum 35588937A7B35E1A43191DC70AD4370333C30901ABACC2E7AF8E15BDD2B82326 ====



Показать сообщения:    

Текущее время: 06-Дек 15:15

Часовой пояс: UTC + 3


Вы не можете начинать темы
Вы не можете отвечать на сообщения
Вы не можете редактировать свои сообщения
Вы не можете удалять свои сообщения
Вы не можете голосовать в опросах
Вы не можете прикреплять файлы к сообщениям
Вы не можете скачивать файлы