(baroque) Bach - Brandenburg concertos Nos. 1-6 / Бах - Бранденбургские концерты (Yehudi Menuhin, Beth Festival Orchestra) - 1994, FLAC (image+.cue) lossless


 

[Цитировать]

Johann Sebastian Bach - Brandenburg concertos Nos. 1-6 |Бранденбургские концерты (Yehudi Menuhin)
Жанр: baroque
Страна-производитель диска: russia
Год издания диска: 1994
Издатель (лейбл): pirated CD
Дата записи: 1959
Аудиокодек: FLAC
Тип рипа: image+.cue
Битрейт аудио: lossless
Продолжительность: 1 : 53 : 05
Источник: собственный рип
Наличие сканов в содержимом раздачи: да

Треклист:

СD 1
10 / 00:00:52:41 / 277,09 MB
-------------------------------------------------------------------------------------------------------------------------------------------------------------
Brandenburg Concerto No.1 in F Major
01. I.Allegro [04:18]
02. II.Adagio [04:29]
03. III.Allegro [04:39]
04. 4.Menuett [08:05]
Brandenburg Concerto No.2 in F Major
05. I.Allegro [05:05]
06. II.Andante [04:29]
07. III.Allegro assai [03:00]
Brandenburg Concerto No.3 in G Major
08. I.Allegro [06:06]
09. II.Adagio [07:01]
10. III.Allegro [05:34]
CD2
9 / 00:00:59:53 / 301,99 MB
------------------------------------------------------------------------------------------------------------------------------------------------------------
Brandenburg concerto No.4 in G, BWV.1049
01. I.Allegro [07:35]
02. II.Andante [03:56]
03. III.Presto [05:42]
Brandenburg concerto No.5 in D, BWV.1050
04. I.Allegro [10:47]
05. II.Affettuoso [06:40]
06. III.Allegro [05:27]
Brandenburg concerto No.6 in B flat, BWV.1051
07. I.Allegro [07:13]
08. II.Adagio ma non tanto [06:38]
09. III.Allegro [05:58]
Исполнители:
Yehudi Menuhin, Beth Festival Orchestra

Лог создания рипа

Exact Audio Copy V1.1 from 23. June 2015
Отчёт EAC об извлечении, выполненном 29. января 2016, 19:26
Bach Johann Sebastian (1685-1750) / Bach: Brandenburg Concertos Nos. 1-3
Дисковод: _NEC DVD_RW ND-3540A Adapter: 1 ID: 0
Режим чтения : ДостоверностьИспользование точного потока : ДаОтключение кэша аудио : ДаИспользование указателей C2 : Нет
Коррекция смещения при чтении : 48Способность читать области Lead-in и Lead-out : НетЗаполнение пропущенных сэмплов тишиной : ДаУдаление блоков с тишиной в начале и конце : НетПри вычислениях CRC использовались нулевые сэмплы : ДаИнтерфейс : Встроенный Win32-интерфейс для Win NT/2000
Выходной формат : Пользовательский кодировщикВыбранный битрейт : 1024 kBit/sКачество : ВысокийДобавление ID3-тега : ДаУтилита сжатия : C:\Program Files (x86)\Exact Audio Copy\Flac\flac.exeДополнительные параметры : -V -8 -T "Date=%year%" -T "Genre=%genre%" %source%
TOC извлечённого CD
Трек | Старт | Длительность | Начальный сектор | Конечный сектор --------------------------------------------------------------------- 1 | 0:00.00 | 4:17.30 | 0 | 19304 2 | 4:17.30 | 4:28.10 | 19305 | 39414 3 | 8:45.40 | 4:38.37 | 39415 | 60301 4 | 13:24.02 | 8:04.60 | 60302 | 96661 5 | 21:28.62 | 5:04.18 | 96662 | 119479 6 | 26:33.05 | 4:28.72 | 119480 | 139651 7 | 31:02.02 | 2:59.30 | 139652 | 153106 8 | 34:01.32 | 6:05.23 | 153107 | 180504 9 | 40:06.55 | 7:00.65 | 180505 | 212069 10 | 47:07.45 | 5:33.17 | 212070 | 237061
Характеристики диапазона извлечения и сообщения об ошибках
Выбранный диапазон
Имя файла D:\SOUND\BACH YEHUDI MENUHIN Brandenburg concertos Nos. 1-6 (44-16)\CD 1\Bach Johann Sebastian (1685-1750) - Bach- Brandenburg Concertos Nos. 1-3.wav
Пиковый уровень 97.6 % Скорость извлечения 7.6 X Качество диапазона 100.0 % CRC теста D23DF844 CRC копии D23DF844 Копирование... OK
Ошибок не произошло
Конец отчёта
---- CUETools DB Plugin V2.1.6
[CTDB TOCID: .2mQaMwuKex4fglWCGEXhTTz3v0-] foundSubmit result: already submittedTrack | CTDB Status 1 | (10/11) Accurately ripped 2 | (10/11) Accurately ripped 3 | (10/11) Accurately ripped 4 | (10/11) Accurately ripped 5 | (10/11) Accurately ripped 6 | ( 9/11) Accurately ripped 7 | (10/11) Accurately ripped 8 | (10/11) Accurately ripped 9 | ( 9/11) Accurately ripped 10 | (10/11) Accurately ripped
==== Контрольная сумма отчёта A1E49494EAFDED88B08E9FCF371654CDA5ECF550C91E19296646C7616577F20B ====
Exact Audio Copy V1.1 from 23. June 2015
Отчёт EAC об извлечении, выполненном 29. января 2016, 18:56
Bach Johann Sebastian (1685-1750) / Bach: Brandenburg Concertos Nos. 4 - 6
Дисковод: _NEC DVD_RW ND-3540A Adapter: 1 ID: 0
Режим чтения : ДостоверностьИспользование точного потока : ДаОтключение кэша аудио : ДаИспользование указателей C2 : Нет
Коррекция смещения при чтении : 48Способность читать области Lead-in и Lead-out : НетЗаполнение пропущенных сэмплов тишиной : ДаУдаление блоков с тишиной в начале и конце : НетПри вычислениях CRC использовались нулевые сэмплы : ДаИнтерфейс : Встроенный Win32-интерфейс для Win NT/2000
Выходной формат : Пользовательский кодировщикВыбранный битрейт : 1024 kBit/sКачество : ВысокийДобавление ID3-тега : ДаУтилита сжатия : C:\Program Files (x86)\Exact Audio Copy\Flac\flac.exeДополнительные параметры : -V -8 -T "Date=%year%" -T "Genre=%genre%" %source%
TOC извлечённого CD
Трек | Старт | Длительность | Начальный сектор | Конечный сектор --------------------------------------------------------------------- 1 | 0:00.00 | 7:34.72 | 0 | 34121 2 | 7:34.72 | 3:55.65 | 34122 | 51811 3 | 11:30.62 | 5:41.40 | 51812 | 77426 4 | 17:12.27 | 10:46.10 | 77427 | 125886 5 | 27:58.37 | 6:39.60 | 125887 | 155871 6 | 34:38.22 | 5:26.38 | 155872 | 180359 7 | 40:04.60 | 7:12.45 | 180360 | 212804 8 | 47:17.30 | 6:37.20 | 212805 | 242599 9 | 53:54.50 | 5:57.52 | 242600 | 269426
Характеристики диапазона извлечения и сообщения об ошибках
Выбранный диапазон
Имя файла D:\SOUND\BACH YEHUDI MENUHIN Brandenburg concertos Nos. 1-6 (44-16)\CD 2\Bach Johann Sebastian (1685-1750) - Bach- Brandenburg Concertos Nos. 4 - 6.wav
Пиковый уровень 81.5 % Скорость извлечения 5.4 X Качество диапазона 99.9 % CRC теста 794B0E06 CRC копии 794B0E06 Копирование... OK
Ошибок не произошло
Конец отчёта
---- CUETools DB Plugin V2.1.6
[CTDB TOCID: qYwJVqFkGMRDFcRCKRIUsr2Ptlw-] foundSubmit result: already submittedTrack | CTDB Status 1 | (20/20) Accurately ripped 2 | (19/20) Accurately ripped 3 | (20/20) Accurately ripped 4 | (20/20) Accurately ripped 5 | (19/20) Accurately ripped 6 | (20/20) Accurately ripped 7 | (19/20) Accurately ripped 8 | (19/20) Accurately ripped 9 | (20/20) Accurately ripped
==== Контрольная сумма отчёта DA19AAC058E7F7EBCBCC9A2E37987645624B7107E80A6FA5EC3B694564B4B2A1 ====

Содержание индексной карты (.CUE)

REM GENRE baroqueREM DATE 1959REM DISCID 8D0C580AREM COMMENT "ExactAudioCopy v1.1"PERFORMER "Bach Johann Sebastian (1685-1750)"TITLE "Bach: Brandenburg Concertos Nos. 1-3"FILE "Bach Johann Sebastian (1685-1750) - Bach- Brandenburg Concertos Nos. 1-3.flac" WAVE TRACK 01 AUDIO TITLE "Bach - Brandenburg Concerto No. 1 in F Major - 1. Allegro" PERFORMER "Bath Festival Orchestra; Yehudi Menuhin (conductor)" INDEX 01 00:00:00 TRACK 02 AUDIO TITLE "Bach - Brandenburg Concerto No. 1 in F Major - 2. Adagio" PERFORMER "Bath Festival Orchestra; Yehudi Menuhin (conductor)" INDEX 01 04:17:30 TRACK 03 AUDIO TITLE "Bach - Brandenburg Concerto No. 1 in F Major - 3. Allegro" PERFORMER "Bath Festival Orchestra; Yehudi Menuhin (conductor)" INDEX 01 08:45:40 TRACK 04 AUDIO TITLE "Bach - Brandenburg Concerto No. 1 in F Major - 4. Menuett" PERFORMER "Bath Festival Orchestra; Yehudi Menuhin (conductor)" INDEX 01 13:24:02 TRACK 05 AUDIO TITLE "Bach - Brandenburg Concerto No. 2 in F Major - 1. Allegro" PERFORMER "Bath Festival Orchestra; Yehudi Menuhin (conductor)" INDEX 01 21:28:62 TRACK 06 AUDIO TITLE "Bach - Brandenburg Concerto No. 2 in F Major - 2. Andante" PERFORMER "Bath Festival Orchestra; Yehudi Menuhin (conductor)" INDEX 01 26:33:05 TRACK 07 AUDIO TITLE "Bach - Brandenburg Concerto No. 2 in F Major - 3. Allegro assai" PERFORMER "Bath Festival Orchestra; Yehudi Menuhin (conductor)" INDEX 01 31:02:02 TRACK 08 AUDIO TITLE "Bach - Brandenburg Concerto No. 3 in G Major - 1. Allegro" PERFORMER "Bath Festival Orchestra; Yehudi Menuhin (conductor)" INDEX 01 34:01:32 TRACK 09 AUDIO TITLE "Bach - Brandenburg Concerto No. 3 in G Major - 2. Adagio" PERFORMER "Bath Festival Orchestra; Yehudi Menuhin (conductor)" INDEX 01 40:06:55 TRACK 10 AUDIO TITLE "Bach - Brandenburg Concerto No. 3 in G Major - 3. Allegro" PERFORMER "Bath Festival Orchestra; Yehudi Menuhin (conductor)" INDEX 01 47:07:45
REM GENRE baroqueREM DATE 1959REM DISCID 730E0809REM COMMENT "ExactAudioCopy v1.1"PERFORMER "Bach Johann Sebastian (1685-1750)"TITLE "Bach: Brandenburg Concertos Nos. 4 - 6"FILE "Bach Johann Sebastian (1685-1750) - Bach- Brandenburg Concertos Nos. 4 - 6.flac" WAVE TRACK 01 AUDIO TITLE "Bach - Brandenburg concerto No.4 in G, BWV.1049: 1. Allegro" PERFORMER "Bath Festival Orchestra; Yehudi Menuhin (conductor)" INDEX 01 00:00:00 TRACK 02 AUDIO TITLE "Bach - Brandenburg concerto No.4 in G, BWV.1049: 2. Andante" PERFORMER "Bath Festival Orchestra; Yehudi Menuhin (conductor)" INDEX 01 07:34:72 TRACK 03 AUDIO TITLE "Bach - Brandenburg concerto No.4 in G, BWV.1049: 3. Presto" PERFORMER "Bath Festival Orchestra; Yehudi Menuhin (conductor)" INDEX 01 11:30:62 TRACK 04 AUDIO TITLE "Bach - Brandenburg concerto No.5 in D, BWV.1050: 1. Allegro" PERFORMER "Bath Festival Orchestra; Yehudi Menuhin (conductor)" INDEX 01 17:12:27 TRACK 05 AUDIO TITLE "Bach - Brandenburg concerto No.5 in D, BWV.1050: 2. Affettuoso" PERFORMER "Bath Festival Orchestra; Yehudi Menuhin (conductor)" INDEX 01 27:58:37 TRACK 06 AUDIO TITLE "Bach - Brandenburg concerto No.5 in D, BWV.1050: 3. Allegro" PERFORMER "Bath Festival Orchestra; Yehudi Menuhin (conductor)" INDEX 01 34:38:22 TRACK 07 AUDIO TITLE "Bach - Brandenburg concerto No.6 in B flat, BWV.1051: 1. Allegro" PERFORMER "Bath Festival Orchestra; Yehudi Menuhin (conductor)" INDEX 01 40:04:60 TRACK 08 AUDIO TITLE "Bach - Brandenburg concerto No.6 in B flat, BWV.1051: 2. Adagio ma non tanto" PERFORMER "Bath Festival Orchestra; Yehudi Menuhin (conductor)" INDEX 01 47:17:30 TRACK 09 AUDIO TITLE "Bach - Brandenburg concerto No.6 in B flat, BWV.1051: 3. Allegro" PERFORMER "Bath Festival Orchestra; Yehudi Menuhin (conductor)" INDEX 01 53:54:50



Показать сообщения:    

Текущее время: 04-Дек 15:18

Часовой пояс: UTC + 3


Вы не можете начинать темы
Вы не можете отвечать на сообщения
Вы не можете редактировать свои сообщения
Вы не можете удалять свои сообщения
Вы не можете голосовать в опросах
Вы не можете прикреплять файлы к сообщениям
Вы не можете скачивать файлы