(Choral) Французская хоровая музыка: Дебюсси, Равель, Жоливе, Франсе, Мессиан, Флоренц / French Choral Music: Debussy, Ravel, Jolivet, Francaix, Messiaen, Florentz (Netherlands Chamber Choir, Ed Spanjaard) - 2002, FLAC (tracks+.cue) lossless


Статистика раздачи [Обновить пиров]
Размер:  283 MB   |    Зарегистрирован:  10 месяцев   |    Скачан:  0 раз

Полного источника не было: Никогда

 
   
 
 
 

[Цитировать]

French Choral Music: Debussy, Ravel, Jolivet, Françaix, Messiaen, Florentz
Жанр: Choral, 20 century
Страна-производитель диска: Germany
Год издания диска: 2002
Издатель (лейбл): Globe
Номер по каталогу: GLO 5215
Дата записи: 2000
Аудиокодек: FLAC
Тип рипа: tracks+.cue
Битрейт аудио: lossless
Продолжительность: 60:58
Источник: скачано с
Наличие сканов в содержимом раздачи: да
Треклист:

Claude Debussy (1862-1918)

Trois chansons de Charles d'Orléans, pour chœur mixte (1908)
01 I. Dieu! qu'il la fait bon regarder
02 II. Quant j'ai ouy le tambourin
03 III. Yver, vous n'estes qu'un villain
Maurice Ravel (1875-1937)
Trois chansons, pour chœur mixte (1915)
04 I. Nicolette
05 II. Trois beaux oiseaux du paradis
06 III. Ronde
Andre Jolivét (1905-1974)
Epithalame ("Wedding song"), symphonie pour orchestre vocal a douze parties (1953)
07 I. Moderato
08 II. Allegretto semplice
09 III. Allegro maestoso.
Jean Francaix (1912-1997)
Trois Poémes de Paul Valery, pour chœur a 4 voix mixtes (1982)
10 I. Aurore
11 II. Cantique des colonnes
12 III. Le Sylphe
Olivier Messiaen (1908-1992)
13 O sacrum convivium, pour chœur a quatre voix mixtes (1937)
Jean-Louis Florentz (1947-2004)
14 Asmarâ, pour chœur mixte a cappella (1992)
Исполнители:
Netherlands Chamber Choir
Ed Spanjaard, conductor
rec. Augustinuskerk, Amsterdam, September 2000

Лог создания рипа

X Lossless Decoder version 20141129a (148.2)
XLD extraction logfile from 2015-08-26 16:37:35 +0200
Ed Spanjaard/Netherlands Chamber Choir / French Choral Music - Netherlands Chamber Choir conducted by Ed Spanjaard - Debussy • Ravel • Jolivet • Françaix • Messiaen • Florentz [Globe]
Used drive : TSSTcorp CDDVDW SE-S084D (revision TS01)Media type : Pressed CD
Ripper mode : XLD Secure RipperDisable audio cache : OK for the drive with a cache less than 1375KiBMake use of C2 pointers : NORead offset correction : 6Max retry count : 100Gap status : Analyzed, Appended (except HTOA)
TOC of the extracted CD Track | Start | Length | Start sector | End sector --------------------------------------------------------- 1 | 00:00:00 | 02:29:32 | 0 | 11206 2 | 02:29:32 | 01:55:25 | 11207 | 19856 3 | 04:24:57 | 02:06:55 | 19857 | 29361 4 | 06:31:37 | 02:02:35 | 29362 | 38546 5 | 08:33:72 | 02:55:55 | 38547 | 51726 6 | 11:29:52 | 01:52:55 | 51727 | 60181 7 | 13:22:32 | 08:43:40 | 60182 | 99446 8 | 22:05:72 | 08:20:48 | 99447 | 136994 9 | 30:26:45 | 03:16:40 | 136995 | 151734 10 | 33:43:10 | 01:36:12 | 151735 | 158946 11 | 35:19:22 | 05:05:50 | 158947 | 181871 12 | 40:24:72 | 00:52:73 | 181872 | 185844 13 | 41:17:70 | 04:35:52 | 185845 | 206521 14 | 45:53:47 | 15:03:25 | 206522 | 274271
AccurateRip Summary (DiscID: 00188375-0112fe34-b30e480e) Track 01 : OK (v1+v2, confidence 6/6) Track 02 : OK (v1+v2, confidence 6/6) Track 03 : OK (v1+v2, confidence 6/6) Track 04 : OK (v1+v2, confidence 6/6) Track 05 : OK (v1+v2, confidence 6/6) Track 06 : OK (v1+v2, confidence 6/6) Track 07 : OK (v1+v2, confidence 6/6) Track 08 : OK (v1+v2, confidence 6/6) Track 09 : OK (v1+v2, confidence 6/6) Track 10 : OK (v1+v2, confidence 6/6) Track 11 : OK (v1+v2, confidence 6/6) Track 12 : OK (v1+v2, confidence 6/6) Track 13 : OK (v1+v2, confidence 6/6) Track 14 : OK (v1+v2, confidence 5/5) ->All tracks accurately ripped.
All Tracks Album gain : -2.91 dB Peak : 0.991791 Statistics Read error : 0 Jitter error (maybe fixed) : 0 Retry sector count : 0 Damaged sector count : 0
Track 01 Filename : /Volumes/4TB 2/CD/French Choral Music - Netherlands Chamber Choir conducted by Ed Spanjaard - Debussy • Ravel • Jolivet • Françaix • Messiaen • Florentz [Globe]/01 Trois chansons de Charles d'Orléans: I. Dieu! qu'il la fait bon regarder.flac Pre-gap length : 00:02:00
Track gain : 0.90 dB Peak : 0.625519 CRC32 hash (test run) : 058AAB41 CRC32 hash : 058AAB41 CRC32 hash (skip zero) : 8B86658B AccurateRip v1 signature : 888CDFDA AccurateRip v2 signature : B8EFB012 ->Accurately ripped (v1+v2, confidence 3+3/6) Statistics Read error : 0 Jitter error (maybe fixed) : 0 Retry sector count : 0 Damaged sector count : 0
Track 02 Filename : /Volumes/4TB 2/CD/French Choral Music - Netherlands Chamber Choir conducted by Ed Spanjaard - Debussy • Ravel • Jolivet • Françaix • Messiaen • Florentz [Globe]/02 Trois chansons de Charles d'Orléans: II. Quant j'ai ouy le tambourin.flac
Track gain : 3.22 dB Peak : 0.794922 CRC32 hash (test run) : 26EC7132 CRC32 hash : 26EC7132 CRC32 hash (skip zero) : A9A8BCBF AccurateRip v1 signature : A4F0C74C AccurateRip v2 signature : EBE6C6BC ->Accurately ripped (v1+v2, confidence 3+3/6) Statistics Read error : 0 Jitter error (maybe fixed) : 0 Retry sector count : 0 Damaged sector count : 0
Track 03 Filename : /Volumes/4TB 2/CD/French Choral Music - Netherlands Chamber Choir conducted by Ed Spanjaard - Debussy • Ravel • Jolivet • Françaix • Messiaen • Florentz [Globe]/03 Trois chansons de Charles d'Orléans: III. Yver, vous n'estes qu'un villain.flac
Track gain : -5.24 dB Peak : 0.982727 CRC32 hash (test run) : A85C06EB CRC32 hash : A85C06EB CRC32 hash (skip zero) : 05BDEE82 AccurateRip v1 signature : B49C68CF AccurateRip v2 signature : C6D0DAAE ->Accurately ripped (v1+v2, confidence 3+3/6) Statistics Read error : 0 Jitter error (maybe fixed) : 0 Retry sector count : 0 Damaged sector count : 0
Track 04 Filename : /Volumes/4TB 2/CD/French Choral Music - Netherlands Chamber Choir conducted by Ed Spanjaard - Debussy • Ravel • Jolivet • Françaix • Messiaen • Florentz [Globe]/04 Trois chansons: I. Nicolette.flac Pre-gap length : 00:03:57
Track gain : 3.39 dB Peak : 0.465759 CRC32 hash (test run) : 255EAD4F CRC32 hash : 255EAD4F CRC32 hash (skip zero) : 379D8B43 AccurateRip v1 signature : 3FE51662 AccurateRip v2 signature : 8BAAC469 ->Accurately ripped (v1+v2, confidence 3+3/6) Statistics Read error : 0 Jitter error (maybe fixed) : 0 Retry sector count : 0 Damaged sector count : 0
Track 05 Filename : /Volumes/4TB 2/CD/French Choral Music - Netherlands Chamber Choir conducted by Ed Spanjaard - Debussy • Ravel • Jolivet • Françaix • Messiaen • Florentz [Globe]/05 Trois chansons: II. Trois beaux oiseaux du paradis.flac
Track gain : 2.45 dB Peak : 0.873901 CRC32 hash (test run) : 71D2CE6B CRC32 hash : 71D2CE6B CRC32 hash (skip zero) : 5D00E622 AccurateRip v1 signature : 9CCF3904 AccurateRip v2 signature : 1A753D04 ->Accurately ripped (v1+v2, confidence 3+3/6) Statistics Read error : 0 Jitter error (maybe fixed) : 0 Retry sector count : 0 Damaged sector count : 0
Track 06 Filename : /Volumes/4TB 2/CD/French Choral Music - Netherlands Chamber Choir conducted by Ed Spanjaard - Debussy • Ravel • Jolivet • Françaix • Messiaen • Florentz [Globe]/06 Trois chansons: III. Ronde.flac
Track gain : -4.00 dB Peak : 0.985138 CRC32 hash (test run) : 7590A558 CRC32 hash : 7590A558 CRC32 hash (skip zero) : B8668786 AccurateRip v1 signature : AF1D8D3A AccurateRip v2 signature : E88414F1 ->Accurately ripped (v1+v2, confidence 3+3/6) Statistics Read error : 0 Jitter error (maybe fixed) : 0 Retry sector count : 0 Damaged sector count : 0
Track 07 Filename : /Volumes/4TB 2/CD/French Choral Music - Netherlands Chamber Choir conducted by Ed Spanjaard - Debussy • Ravel • Jolivet • Françaix • Messiaen • Florentz [Globe]/07 Epithalame: Part 1.flac Pre-gap length : 00:04:15
Track gain : -1.74 dB Peak : 0.980957 CRC32 hash (test run) : 6B104FCC CRC32 hash : 6B104FCC CRC32 hash (skip zero) : FB5A11B2 AccurateRip v1 signature : 53AA2EE9 AccurateRip v2 signature : 17C78F16 ->Accurately ripped (v1+v2, confidence 3+3/6) Statistics Read error : 0 Jitter error (maybe fixed) : 0 Retry sector count : 0 Damaged sector count : 0
Track 08 Filename : /Volumes/4TB 2/CD/French Choral Music - Netherlands Chamber Choir conducted by Ed Spanjaard - Debussy • Ravel • Jolivet • Françaix • Messiaen • Florentz [Globe]/08 Epithalame: Part 2.flac
Track gain : -1.05 dB Peak : 0.980621 CRC32 hash (test run) : 8B35C15B CRC32 hash : 8B35C15B CRC32 hash (skip zero) : 8130774F AccurateRip v1 signature : 97C15707 AccurateRip v2 signature : 92A3E8FF ->Accurately ripped (v1+v2, confidence 3+3/6) Statistics Read error : 0 Jitter error (maybe fixed) : 0 Retry sector count : 0 Damaged sector count : 0
Track 09 Filename : /Volumes/4TB 2/CD/French Choral Music - Netherlands Chamber Choir conducted by Ed Spanjaard - Debussy • Ravel • Jolivet • Françaix • Messiaen • Florentz [Globe]/09 Epithalame: Part 3.flac
Track gain : -6.29 dB Peak : 0.991791 CRC32 hash (test run) : 42898197 CRC32 hash : 42898197 CRC32 hash (skip zero) : 4C1F87BC AccurateRip v1 signature : A1A0FBA8 AccurateRip v2 signature : 871995FB ->Accurately ripped (v1+v2, confidence 3+3/6) Statistics Read error : 0 Jitter error (maybe fixed) : 0 Retry sector count : 0 Damaged sector count : 0
Track 10 Filename : /Volumes/4TB 2/CD/French Choral Music - Netherlands Chamber Choir conducted by Ed Spanjaard - Debussy • Ravel • Jolivet • Françaix • Messiaen • Florentz [Globe]/10 Trois Poèmes de Paul Valéry: I. Aurore.flac Pre-gap length : 00:02:60
Track gain : 4.08 dB Peak : 0.654388 CRC32 hash (test run) : 6AB9CBF8 CRC32 hash : 6AB9CBF8 CRC32 hash (skip zero) : 13FC4337 AccurateRip v1 signature : B2E7E1A5 AccurateRip v2 signature : EA4BBFE0 ->Accurately ripped (v1+v2, confidence 3+3/6) Statistics Read error : 0 Jitter error (maybe fixed) : 0 Retry sector count : 0 Damaged sector count : 0
Track 11 Filename : /Volumes/4TB 2/CD/French Choral Music - Netherlands Chamber Choir conducted by Ed Spanjaard - Debussy • Ravel • Jolivet • Françaix • Messiaen • Florentz [Globe]/11 Trois Poèmes de Paul Valéry: II. Cantique des colonnes.flac
Track gain : 4.32 dB Peak : 0.598419 CRC32 hash (test run) : B10E83A7 CRC32 hash : B10E83A7 CRC32 hash (skip zero) : E179C9CA AccurateRip v1 signature : 879EDFF2 AccurateRip v2 signature : 4FB22E5D ->Accurately ripped (v1+v2, confidence 3+3/6) Statistics Read error : 0 Jitter error (maybe fixed) : 0 Retry sector count : 0 Damaged sector count : 0
Track 12 Filename : /Volumes/4TB 2/CD/French Choral Music - Netherlands Chamber Choir conducted by Ed Spanjaard - Debussy • Ravel • Jolivet • Françaix • Messiaen • Florentz [Globe]/12 Trois Poèmes de Paul Valéry: III. Le Sylphe.flac
Track gain : 4.37 dB Peak : 0.523651 CRC32 hash (test run) : 1E7FEEE1 CRC32 hash : 1E7FEEE1 CRC32 hash (skip zero) : 41187CA0 AccurateRip v1 signature : 36920917 AccurateRip v2 signature : A8F1A27B ->Accurately ripped (v1+v2, confidence 3+3/6) Statistics Read error : 0 Jitter error (maybe fixed) : 0 Retry sector count : 0 Damaged sector count : 0
Track 13 Filename : /Volumes/4TB 2/CD/French Choral Music - Netherlands Chamber Choir conducted by Ed Spanjaard - Debussy • Ravel • Jolivet • Françaix • Messiaen • Florentz [Globe]/13 O sacrum convivium.flac Pre-gap length : 00:03:03
Track gain : -2.31 dB Peak : 0.982819 CRC32 hash (test run) : CEBB41E4 CRC32 hash : CEBB41E4 CRC32 hash (skip zero) : 75225278 AccurateRip v1 signature : A29C7B09 AccurateRip v2 signature : 37824C04 ->Accurately ripped (v1+v2, confidence 3+3/6) Statistics Read error : 0 Jitter error (maybe fixed) : 0 Retry sector count : 0 Damaged sector count : 0
Track 14 Filename : /Volumes/4TB 2/CD/French Choral Music - Netherlands Chamber Choir conducted by Ed Spanjaard - Debussy • Ravel • Jolivet • Françaix • Messiaen • Florentz [Globe]/14 Asmarâ.flac Pre-gap length : 00:05:47
Track gain : -4.65 dB Peak : 0.986053 CRC32 hash (test run) : ACC95402 CRC32 hash : ACC95402 CRC32 hash (skip zero) : 533C0E55 AccurateRip v1 signature : EC0FF83F AccurateRip v2 signature : 08ACB396 ->Accurately ripped (v1+v2, confidence 2+3/5) Statistics Read error : 0 Jitter error (maybe fixed) : 0 Retry sector count : 0 Damaged sector count : 0
No errors occurred
End of status report
-----BEGIN XLD SIGNATURE-----7XP83v30qkvxIHzdynrQozUkIktxa1eVC2NNNyDAVMX81cr7aQvf6MXD5Xs_ewkUdOnP7MGDk.KALqTNV3bIVs1HXn0DuZPDV8u7aBC-----END XLD SIGNATURE-----

Содержание индексной карты (.CUE)

TITLE "French Choral Music - Netherlands Chamber Choir conducted by Ed Spanjaard - Debussy • Ravel • Jolivet • Françaix • Messiaen • Florentz [Globe]"PERFORMER "Ed Spanjaard/Netherlands Chamber Choir"REM GENRE "Classical"REM DATE "2000"REM DISCNUMBER 1REM TOTALDISCS 1REM DISCID B30E480EREM REPLAYGAIN_ALBUM_GAIN -2.91 dBREM REPLAYGAIN_ALBUM_PEAK 0.991791FILE "01 Trois chansons de Charles d'Orléans: I. Dieu! qu'il la fait bon regarder.flac" WAVE TRACK 01 AUDIO TITLE "Trois chansons de Charles d'Orléans: I. Dieu! qu'il la fait bon regarder" PERFORMER "Ed Spanjaard/Netherlands Chamber Choir" SONGWRITER "Claude Debussy" REM COMMENT "Netherlands Chamber Choir/Ed Spanjaard. Recording: Augustinuskerk, Amsterdam, September 2000." REM REPLAYGAIN_TRACK_GAIN 0.90 dB REM REPLAYGAIN_TRACK_PEAK 0.625519 INDEX 01 00:00:00FILE "02 Trois chansons de Charles d'Orléans: II. Quant j'ai ouy le tambourin.flac" WAVE TRACK 02 AUDIO TITLE "Trois chansons de Charles d'Orléans: II. Quant j'ai ouy le tambourin" PERFORMER "Ed Spanjaard/Netherlands Chamber Choir" SONGWRITER "Claude Debussy" REM COMMENT "Netherlands Chamber Choir/Alto Solo: Karin van der Poel/Ed Spanjaard. Recording: Augustinuskerk, Amsterdam, September 2000." REM REPLAYGAIN_TRACK_GAIN 3.22 dB REM REPLAYGAIN_TRACK_PEAK 0.794922 INDEX 01 00:00:00FILE "03 Trois chansons de Charles d'Orléans: III. Yver, vous n'estes qu'un villain.flac" WAVE TRACK 03 AUDIO TITLE "Trois chansons de Charles d'Orléans: III. Yver, vous n'estes qu'un villain" PERFORMER "Ed Spanjaard/Netherlands Chamber Choir" SONGWRITER "Claude Debussy" REM COMMENT "Netherlands Chamber Choir/Ed Spanjaard. Recording: Augustinuskerk, Amsterdam, September 2000." REM REPLAYGAIN_TRACK_GAIN -5.24 dB REM REPLAYGAIN_TRACK_PEAK 0.982727 INDEX 01 00:00:00 TRACK 04 AUDIO TITLE "Trois chansons: I. Nicolette" PERFORMER "Ed Spanjaard/Netherlands Chamber Choir" SONGWRITER "Maurice Ravel" REM COMMENT "Netherlands Chamber Choir/Ed Spanjaard. Recording: Augustinuskerk, Amsterdam, September 2000." REM REPLAYGAIN_TRACK_GAIN 3.39 dB REM REPLAYGAIN_TRACK_PEAK 0.465759 INDEX 00 02:02:73FILE "04 Trois chansons: I. Nicolette.flac" WAVE INDEX 01 00:00:00FILE "05 Trois chansons: II. Trois beaux oiseaux du paradis.flac" WAVE TRACK 05 AUDIO TITLE "Trois chansons: II. Trois beaux oiseaux du paradis" PERFORMER "Ed Spanjaard/Netherlands Chamber Choir" SONGWRITER "Maurice Ravel" REM COMMENT "Netherlands Chamber Choir/Soprano Solo: Barbara Borden/Ed Spanjaard. Recording: Augustinuskerk, Amsterdam, September 2000." REM REPLAYGAIN_TRACK_GAIN 2.45 dB REM REPLAYGAIN_TRACK_PEAK 0.873901 INDEX 01 00:00:00FILE "06 Trois chansons: III. Ronde.flac" WAVE TRACK 06 AUDIO TITLE "Trois chansons: III. Ronde" PERFORMER "Ed Spanjaard/Netherlands Chamber Choir" SONGWRITER "Maurice Ravel" REM COMMENT "Netherlands Chamber Choir/Ed Spanjaard. Recording: Augustinuskerk, Amsterdam, September 2000." REM REPLAYGAIN_TRACK_GAIN -4.00 dB REM REPLAYGAIN_TRACK_PEAK 0.985138 INDEX 01 00:00:00 TRACK 07 AUDIO TITLE "Epithalame: Part 1" PERFORMER "Ed Spanjaard/Netherlands Chamber Choir" SONGWRITER "André Jolivet" REM COMMENT "Netherlands Chamber Choir/Ed Spanjaard. Recording: Augustinuskerk, Amsterdam, September 2000." REM REPLAYGAIN_TRACK_GAIN -1.74 dB REM REPLAYGAIN_TRACK_PEAK 0.980957 INDEX 00 01:48:40FILE "07 Epithalame: Part 1.flac" WAVE INDEX 01 00:00:00FILE "08 Epithalame: Part 2.flac" WAVE TRACK 08 AUDIO TITLE "Epithalame: Part 2" PERFORMER "Ed Spanjaard/Netherlands Chamber Choir" SONGWRITER "André Jolivet" REM COMMENT "Netherlands Chamber Choir/Tenor Solo: Robert Coupe/Ed Spanjaard. Recording: Augustinuskerk, Amsterdam, September 2000." REM REPLAYGAIN_TRACK_GAIN -1.05 dB REM REPLAYGAIN_TRACK_PEAK 0.980621 INDEX 01 00:00:00FILE "09 Epithalame: Part 3.flac" WAVE TRACK 09 AUDIO TITLE "Epithalame: Part 3" PERFORMER "Ed Spanjaard/Netherlands Chamber Choir" SONGWRITER "André Jolivet" REM COMMENT "Netherlands Chamber Choir/Ed Spanjaard. Recording: Augustinuskerk, Amsterdam, September 2000." REM REPLAYGAIN_TRACK_GAIN -6.29 dB REM REPLAYGAIN_TRACK_PEAK 0.991791 INDEX 01 00:00:00 TRACK 10 AUDIO TITLE "Trois Poèmes de Paul Valéry: I. Aurore" PERFORMER "Ed Spanjaard/Netherlands Chamber Choir" SONGWRITER "Jean Françaix" REM COMMENT "Netherlands Chamber Choir/Ed Spanjaard. Recording: Augustinuskerk, Amsterdam, September 2000." REM REPLAYGAIN_TRACK_GAIN 4.08 dB REM REPLAYGAIN_TRACK_PEAK 0.654388 INDEX 00 03:13:55FILE "10 Trois Poèmes de Paul Valéry: I. Aurore.flac" WAVE INDEX 01 00:00:00FILE "11 Trois Poèmes de Paul Valéry: II. Cantique des colonnes.flac" WAVE TRACK 11 AUDIO TITLE "Trois Poèmes de Paul Valéry: II. Cantique des colonnes" PERFORMER "Ed Spanjaard/Netherlands Chamber Choir" SONGWRITER "Jean Françaix" REM COMMENT "Netherlands Chamber Choir/Alto Solo: Karin van der Poel/Ed Spanjaard. Recording: Augustinuskerk, Amsterdam, September 2000." REM REPLAYGAIN_TRACK_GAIN 4.32 dB REM REPLAYGAIN_TRACK_PEAK 0.598419 INDEX 01 00:00:00FILE "12 Trois Poèmes de Paul Valéry: III. Le Sylphe.flac" WAVE TRACK 12 AUDIO TITLE "Trois Poèmes de Paul Valéry: III. Le Sylphe" PERFORMER "Ed Spanjaard/Netherlands Chamber Choir" SONGWRITER "Jean Françaix" REM COMMENT "Netherlands Chamber Choir/Ed Spanjaard. Recording: Augustinuskerk, Amsterdam, September 2000." REM REPLAYGAIN_TRACK_GAIN 4.37 dB REM REPLAYGAIN_TRACK_PEAK 0.523651 INDEX 01 00:00:00 TRACK 13 AUDIO TITLE "O sacrum convivium" PERFORMER "Ed Spanjaard/Netherlands Chamber Choir" SONGWRITER "Olivier Messiaen" REM COMMENT "Netherlands Chamber Choir/Ed Spanjaard. Recording: Augustinuskerk, Amsterdam, September 2000." REM REPLAYGAIN_TRACK_GAIN -2.31 dB REM REPLAYGAIN_TRACK_PEAK 0.982819 INDEX 00 00:49:70FILE "13 O sacrum convivium.flac" WAVE INDEX 01 00:00:00 TRACK 14 AUDIO TITLE "Asmarâ" PERFORMER "Ed Spanjaard/Netherlands Chamber Choir" SONGWRITER "Jean-Louis Florentz" REM COMMENT "Netherlands Chamber Choir/Tenor Solo: Marcel Beekman/Ed Spanjaard. Recording: Augustinuskerk, Amsterdam, September 2000." REM REPLAYGAIN_TRACK_GAIN -4.65 dB REM REPLAYGAIN_TRACK_PEAK 0.986053 INDEX 00 04:30:05FILE "14 Asmarâ.flac" WAVE INDEX 01 00:00:00
Доп. информация: В творчестве французских композиторов сочинения хоровых жанров играют особую роль, многие из них это подлинные шедевры. "Три песни Шарля Орлеанского" Клода Дебюсси ("Ночь", "Я тамбурина слышу звон", "Зима") - прославляют красоту и радость жизни. Композитор сочетает тонкие приёмы стилизации далёкой эпохи и собственную импрессионистскую звукопись. "Три песни" Мориса Равеля навеяны французским фольклором. В каждой песне развивается определенный сюжет, возникают диалоги и красочные характеристики нескольких действующих лиц. "Николетта" напоминает простодушную и лукавую пастушескую бержеретту, песня "Три птицы" приближается к эпическому жанру - скорбным песням крестовых походов; "Хоровод" - шуточная песня, в которой использован приём хоровой скороговорки.
"Эпиталама" (Свадебная песнь) Андре Жоливе - симфония для 12-голосного вокального оркестра (1953). Музыка этой хоровой симфонии на тексты из египетских, греческих, индийских, иудейских, китайских священных книг отличается неисчерпаемй изобретательностью письма и широтой средств выразительности - от экзотической архаики до тонкой звукописи и эпичности, питаемой народными истоками.
"О, священные пиршества", литургический мотет на Святое причастие (1937) Оливье Мессиана - одна из многочисленных в его творчестве музыкальных иллюстраций библейских событий - искреннее и гармоничное единение религии и музыки, синтез веры и искусства. "Три песни на стихи Поля Валери" Жана Франсе ("Аврора", "Песня колонн" и "Сильфида") типичны для стиля этого композитора - они отличаются подкупающей простотой и ясностью.
Жан-Луи Флоренц в своей "Ашмаре" (1992) воплощает средствами классического хорового письма эфиопские музыкальные традиции.
[teatrix.ru].t14705.torrent 
Торрент: Зарегистрирован [ 2016-02-09 12:50 ] · 35A4C00EDAF7362F1EC5C0EE1606913516CEE972

Скачать .torrent

Скачать

14 KB

Статус: проверено
Скачан: 0 раз
Размер: 283 MB
terms.php



Быстрый ответ

Имя:

      
Для отправки сообщений необходимо включить JavaScript
Показать сообщения:    

Текущее время: 10-Дек 11:57

Часовой пояс: UTC + 3


Вы можете начинать темы
Вы можете отвечать на сообщения
Вы не можете редактировать свои сообщения
Вы не можете удалять свои сообщения
Вы не можете голосовать в опросах
Вы не можете прикреплять файлы к сообщениям
Вы можете скачивать файлы