(Choral music) Les Petits Chanteurs a la Croix de Bois - Platinum Collection (3 CD) - 2007, FLAC (image+.cue) lossless


Статистика раздачи [Обновить пиров]
Размер:  917 MB   |    Зарегистрирован:  9 месяцев 23 дня   |    Скачан:  0 раз

Полного источника не было: Никогда

 
   
 
 
 

[Цитировать]

Les Petits Chanteurs a la Croix de Bois - Platinum Collection (3 CD)
Жанр: Choral music
Страна-производитель диска: France
Год издания диска: 2007
Издатель (лейбл): EMI
Номер по каталогу: 03098
Аудиокодек: FLAC
Тип рипа: image+.cue
Битрейт аудио: lossless
Продолжительность: 03:21:33
Источник: собственный рип
Наличие сканов в содержимом раздачи: да
Исполнители:
Les Petits Chanteurs a la Croix de Bois
(The Little Singers of Paris \ Little Singers of the Wooden Cross)

Треклист

CD1
01. Ah quand reviendra-t-il le temps de Noel (3:21)
02. Noel yougoslave (1:05)
03. Cest le jour de la Noel (3:54)
04. Cetait le premier Noel (4:06)
05. Douce nuit sainte nuit (2:10)
06. Il est ne le divin enfant (3:32)
07. La legende de Saint-Nicolas (3:30)
08. Le voyage a Bethleem (2:19)
09. Le bel ange du ciel (4:23)
10. Le sommeil de L enfant-Jesus (3:34)
11. Les anges dans nos campagnes (3:09)
12. Les rois mages (3:01)
13. Marche des rois (2:48)
14. Noel au Tyrol autrichien (2:26)
15. Noel bourguignon (1:57)
16. Noel des iles (4:44)
17. Le Noel des petits santons (3:25)
18. Noel nouveau est venu (2:40)
19. Stille Nacht (Douce Nuit) (3:56)
20. Trois anges sont venus ce soir (2:57)
CD2
01. Avec la garde montante (Carmen acte I) (3:27)
02. Adeste Fidelis (3:04)
03. Cantate de la paix (8:57)
04. Deep River (3:02)
05. La nuit (3:29)
06. Bonjour monseigneur (3:57)
07. O dieu de clemence (3:32)
08. Tece Voda Tece (2:57)
09. Votre divin maitre Noel (4:04)
10. Ave Maria (3:16)
11. Ave Vera Virginitas (2:40)
12. Choeur final de la passion selon Saint-Jea (2:36)
13. Descende in hortum (Descend dans le jardin) (4:02)
14. Domine Non Sum Dignus (2:51)
15. Ego sum panis vivus (4:16)
16. Exsultate Deo (2:37)
17. Gaudent in celis (3:04)
18. O vos omnes (5:54)
19. Requiem extrait de missa pro defunctis (5:09)
20. Salve Regina (gregorien) (2:52)
CD3
01. A La Claire Fontaine (2:59)
02. Adieu Foulards Adieu Madras (4:12)
03. Alouette (2:24)
04. Chante rossignol (3:08)
05. Do-do, L enfant Do (3:14)
06. Gentil Coquelicot (2:05)
07. La bourree (3:40)
08. La Mer (4:00)
09. L enfant au tambour (2:42)
10. Les trois jeunes tambours (2:12)
11. Mes jeunes annees (3:05)
12. Ne pleure pas Jeannette (3:05)
13. Nous n irons plus au bois (3:12)
14. Le chant des oiseaux (3:35)
15. Sur Le Pont d Avignon (3:23)
16. Dors Ma Colombe (2:45)
17. A Lauterbach (2:49)
18. Allons pastoureaux (2:16)
19. Le Rosier De Mai (3:04)
20. Musette (4:57)

Лог создания рипаCD1

Exact Audio Copy V1.0 beta 3 from 29. August 2011
Отчёт EAC об извлечении, выполненном 4. февраля 2016, 21:10
Les Petits Chanteurs a la Croix de Bois / Platinum Collection (Disc 1)
Дисковод: ASUS DRW-1814BL Adapter: 1 ID: 1
Режим чтения : ДостоверностьИспользование точного потока : ДаОтключение кэша аудио : ДаИспользование указателей C2 : Нет
Коррекция смещения при чтении : 6Способность читать области Lead-in и Lead-out : НетЗаполнение пропущенных сэмплов тишиной : ДаУдаление блоков с тишиной в начале и конце : НетПри вычислениях CRC использовались нулевые сэмплы : ДаИнтерфейс : Встроенный Win32-интерфейс для Win NT/2000
Выходной формат : Пользовательский кодировщикВыбранный битрейт : 128 kBit/sКачество : ВысокийДобавление ID3-тега : НетУтилита сжатия : C:\Program Files\Exact Audio Copy\Flac\flac.exeДополнительные параметры : -V -8 -T "Date=%year%" -T "Genre=%genre%" %source%
TOC извлечённого CD
Трек | Старт | Длительность | Начальный сектор | Конечный сектор --------------------------------------------------------------------- 1 | 0:00.00 | 3:21.22 | 0 | 15096 2 | 3:21.22 | 1:05.07 | 15097 | 19978 3 | 4:26.29 | 3:54.25 | 19979 | 37553 4 | 8:20.54 | 4:06.28 | 37554 | 56031 5 | 12:27.07 | 2:10.01 | 56032 | 65782 6 | 14:37.08 | 3:32.37 | 65783 | 81719 7 | 18:09.45 | 3:30.22 | 81720 | 97491 8 | 21:39.67 | 2:18.61 | 97492 | 107902 9 | 23:58.53 | 4:23.01 | 107903 | 127628 10 | 28:21.54 | 3:33.73 | 127629 | 143676 11 | 31:55.52 | 3:09.32 | 143677 | 157883 12 | 35:05.09 | 3:01.24 | 157884 | 171482 13 | 38:06.33 | 2:48.30 | 171483 | 184112 14 | 40:54.63 | 2:25.69 | 184113 | 195056 15 | 43:20.57 | 1:56.67 | 195057 | 203823 16 | 45:17.49 | 4:44.10 | 203824 | 225133 17 | 50:01.59 | 3:25.29 | 225134 | 240537 18 | 53:27.13 | 2:39.48 | 240538 | 252510 19 | 56:06.61 | 3:56.32 | 252511 | 270242 20 | 60:03.18 | 2:56.64 | 270243 | 283506
Характеристики диапазона извлечения и сообщения об ошибках
Выбранный диапазон
Имя файла C:\Documents and Settings\biotox\Рабочий стол\Новая папка (2)\CD1\Les Petits Chanteurs a la Croix de Bois - Platinum Collection (Disc 1).wav
Пиковый уровень 100.0 % Скорость извлечения 8.2 X Качество диапазона 99.9 % CRC теста 0164931E CRC копии 0164931E Копирование... OK
Ошибок не произошло
AccurateRip: сводка
Трек 1 : извлечено точно (доверие 2) [09702DED] (AR v2)Трек 2 : извлечено точно (доверие 2) [8733E738] (AR v2)Трек 3 : извлечено точно (доверие 2) [BFFCC4BC] (AR v2)Трек 4 : извлечено точно (доверие 2) [34A1EE8E] (AR v2)Трек 5 : извлечено точно (доверие 2) [84EF7273] (AR v2)Трек 6 : извлечено точно (доверие 2) [248F67B8] (AR v2)Трек 7 : извлечено точно (доверие 2) [6B9674E3] (AR v2)Трек 8 : извлечено точно (доверие 2) [C6E95B6D] (AR v2)Трек 9 : извлечено точно (доверие 2) [EFCA5B3D] (AR v2)Трек 10 : извлечено точно (доверие 2) [F22C005C] (AR v2)Трек 11 : извлечено точно (доверие 2) [C496924C] (AR v2)Трек 12 : извлечено точно (доверие 2) [BE794E3D] (AR v2)Трек 13 : извлечено точно (доверие 2) [9311DEA5] (AR v2)Трек 14 : извлечено точно (доверие 2) [B0373478] (AR v2)Трек 15 : извлечено точно (доверие 2) [E1DB56A2] (AR v2)Трек 16 : извлечено точно (доверие 2) [F8CF54F4] (AR v2)Трек 17 : извлечено точно (доверие 2) [11737A7C] (AR v2)Трек 18 : извлечено точно (доверие 2) [DF0089A7] (AR v2)Трек 19 : извлечено точно (доверие 2) [C7B86EF7] (AR v2)Трек 20 : извлечено точно (доверие 2) [8A3FF032] (AR v2)
Все треки извлечены точно
Конец отчёта
==== Контрольная сумма отчёта CEE6EDBF11ECA08425BC5B837E4253BFBB9355C3405BF36FD31CB360FEB176F8 ====

CD2

Exact Audio Copy V1.0 beta 3 from 29. August 2011
Отчёт EAC об извлечении, выполненном 4. февраля 2016, 21:49
Les Petits Chanteurs a la Croix de Bois / Platinum Collection (Disc 2)
Дисковод: ASUS DRW-1814BL Adapter: 1 ID: 1
Режим чтения : ДостоверностьИспользование точного потока : ДаОтключение кэша аудио : ДаИспользование указателей C2 : Нет
Коррекция смещения при чтении : 6Способность читать области Lead-in и Lead-out : НетЗаполнение пропущенных сэмплов тишиной : ДаУдаление блоков с тишиной в начале и конце : НетПри вычислениях CRC использовались нулевые сэмплы : ДаИнтерфейс : Встроенный Win32-интерфейс для Win NT/2000
Выходной формат : Пользовательский кодировщикВыбранный битрейт : 128 kBit/sКачество : ВысокийДобавление ID3-тега : НетУтилита сжатия : C:\Program Files\Exact Audio Copy\Flac\flac.exeДополнительные параметры : -V -8 -T "Date=%year%" -T "Genre=%genre%" %source%
TOC извлечённого CD
Трек | Старт | Длительность | Начальный сектор | Конечный сектор --------------------------------------------------------------------- 1 | 0:00.00 | 3:27.28 | 0 | 15552 2 | 3:27.28 | 3:04.09 | 15553 | 29361 3 | 6:31.37 | 8:56.67 | 29362 | 69628 4 | 15:28.29 | 3:01.69 | 69629 | 83272 5 | 18:30.23 | 3:28.49 | 83273 | 98921 6 | 21:58.72 | 3:56.45 | 98922 | 116666 7 | 25:55.42 | 3:32.10 | 116667 | 132576 8 | 29:27.52 | 2:57.01 | 132577 | 145852 9 | 32:24.53 | 4:03.68 | 145853 | 164145 10 | 36:28.46 | 3:15.51 | 164146 | 178821 11 | 39:44.22 | 2:40.15 | 178822 | 190836 12 | 42:24.37 | 2:36.11 | 190837 | 202547 13 | 45:00.48 | 4:02.07 | 202548 | 220704 14 | 49:02.55 | 2:50.74 | 220705 | 233528 15 | 51:53.54 | 4:15.60 | 233529 | 252713 16 | 56:09.39 | 2:37.28 | 252714 | 264516 17 | 58:46.67 | 3:03.50 | 264517 | 278291 18 | 61:50.42 | 5:54.24 | 278292 | 304865 19 | 67:44.66 | 5:09.12 | 304866 | 328052 20 | 72:54.03 | 2:52.26 | 328053 | 340978
Характеристики диапазона извлечения и сообщения об ошибках
Выбранный диапазон
Имя файла C:\Documents and Settings\biotox\Рабочий стол\Новая папка (2)\CD2\Les Petits Chanteurs a la Croix de Bois - Platinum Collection (Disc 2).wav
Пиковый уровень 100.0 % Скорость извлечения 9.0 X Качество диапазона 99.9 % CRC теста 4C1D44B8 CRC копии 4C1D44B8 Копирование... OK
Ошибок не произошло
AccurateRip: сводка
Трек 1 : извлечено точно (доверие 2) [7790F208] (AR v2)Трек 2 : извлечено точно (доверие 2) [0F624BAE] (AR v2)Трек 3 : извлечено точно (доверие 2) [D7FDD309] (AR v2)Трек 4 : извлечено точно (доверие 2) [635CFC9A] (AR v2)Трек 5 : извлечено точно (доверие 2) [900AF006] (AR v2)Трек 6 : извлечено точно (доверие 2) [E4700CBE] (AR v2)Трек 7 : извлечено точно (доверие 2) [B2DFDE23] (AR v2)Трек 8 : извлечено точно (доверие 2) [7E823842] (AR v2)Трек 9 : извлечено точно (доверие 2) [82E10EB4] (AR v2)Трек 10 : извлечено точно (доверие 2) [489AE2BB] (AR v2)Трек 11 : извлечено точно (доверие 2) [5B6CCD3F] (AR v2)Трек 12 : извлечено точно (доверие 2) [E17A308A] (AR v2)Трек 13 : извлечено точно (доверие 2) [125000B9] (AR v2)Трек 14 : извлечено точно (доверие 2) [7E7086BE] (AR v2)Трек 15 : извлечено точно (доверие 2) [3B59E16C] (AR v2)Трек 16 : извлечено точно (доверие 2) [9F365083] (AR v2)Трек 17 : извлечено точно (доверие 2) [9D7816B0] (AR v2)Трек 18 : извлечено точно (доверие 2) [4E1CE193] (AR v2)Трек 19 : извлечено точно (доверие 2) [E6902A40] (AR v2)Трек 20 : извлечено точно (доверие 2) [8CE4EA77] (AR v2)
Все треки извлечены точно
Конец отчёта
==== Контрольная сумма отчёта 7D771090FEF6435EA15E8757E330D3025080065EA437DC796062A418A7369AFF ====

CD3

Exact Audio Copy V1.0 beta 3 from 29. August 2011
Отчёт EAC об извлечении, выполненном 4. февраля 2016, 22:42
Les Petits Chanteurs a la Croix de Bois / Platinum Collection (Disc 3)
Дисковод: ASUS DRW-1814BL Adapter: 1 ID: 1
Режим чтения : ДостоверностьИспользование точного потока : ДаОтключение кэша аудио : ДаИспользование указателей C2 : Нет
Коррекция смещения при чтении : 6Способность читать области Lead-in и Lead-out : НетЗаполнение пропущенных сэмплов тишиной : ДаУдаление блоков с тишиной в начале и конце : НетПри вычислениях CRC использовались нулевые сэмплы : ДаИнтерфейс : Встроенный Win32-интерфейс для Win NT/2000
Выходной формат : Пользовательский кодировщикВыбранный битрейт : 128 kBit/sКачество : ВысокийДобавление ID3-тега : НетУтилита сжатия : C:\Program Files\Exact Audio Copy\Flac\flac.exeДополнительные параметры : -V -8 -T "Date=%year%" -T "Genre=%genre%" %source%
TOC извлечённого CD
Трек | Старт | Длительность | Начальный сектор | Конечный сектор --------------------------------------------------------------------- 1 | 0:00.00 | 2:58.41 | 0 | 13390 2 | 2:58.41 | 4:11.55 | 13391 | 32270 3 | 7:10.21 | 2:24.03 | 32271 | 43073 4 | 9:34.24 | 3:07.58 | 43074 | 57156 5 | 12:42.07 | 3:13.61 | 57157 | 71692 6 | 15:55.68 | 2:04.64 | 71693 | 81056 7 | 18:00.57 | 3:40.25 | 81057 | 97581 8 | 21:41.07 | 4:00.31 | 97582 | 115612 9 | 25:41.38 | 2:41.73 | 115613 | 127760 10 | 28:23.36 | 2:12.01 | 127761 | 137661 11 | 30:35.37 | 3:05.02 | 137662 | 151538 12 | 33:40.39 | 3:05.35 | 151539 | 165448 13 | 36:45.74 | 3:12.16 | 165449 | 179864 14 | 39:58.15 | 3:34.40 | 179865 | 195954 15 | 43:32.55 | 3:22.40 | 195955 | 211144 16 | 46:55.20 | 2:45.13 | 211145 | 223532 17 | 49:40.33 | 2:49.29 | 223533 | 236236 18 | 52:29.62 | 2:15.73 | 236237 | 246434 19 | 54:45.60 | 3:04.10 | 246435 | 260244 20 | 57:49.70 | 4:56.58 | 260245 | 282502
Характеристики диапазона извлечения и сообщения об ошибках
Выбранный диапазон
Имя файла C:\Documents and Settings\biotox\Рабочий стол\Новая папка (2)\CD3\Les Petits Chanteurs a la Croix de Bois - Platinum Collection (Disc 3).wav
Пиковый уровень 100.0 % Скорость извлечения 7.4 X Качество диапазона 100.0 % CRC теста 9F963E16 CRC копии 9F963E16 Копирование... OK
Ошибок не произошло
AccurateRip: сводка
Трек 1 : извлечено точно (доверие 2) [D42A2A65] (AR v2)Трек 2 : извлечено точно (доверие 2) [722701C9] (AR v2)Трек 3 : извлечено точно (доверие 2) [A0E6CFFA] (AR v2)Трек 4 : извлечено точно (доверие 2) [9012FE8D] (AR v2)Трек 5 : извлечено точно (доверие 2) [77335A2E] (AR v2)Трек 6 : извлечено точно (доверие 2) [5F0D775E] (AR v2)Трек 7 : извлечено точно (доверие 2) [712D60D5] (AR v2)Трек 8 : извлечено точно (доверие 2) [A5F18450] (AR v2)Трек 9 : извлечено точно (доверие 2) [78690844] (AR v2)Трек 10 : извлечено точно (доверие 2) [4D9761BF] (AR v2)Трек 11 : извлечено точно (доверие 2) [984A0395] (AR v2)Трек 12 : извлечено точно (доверие 2) [B679D27B] (AR v2)Трек 13 : извлечено точно (доверие 2) [515E9E4C] (AR v2)Трек 14 : извлечено точно (доверие 2) [AC6169CA] (AR v2)Трек 15 : извлечено точно (доверие 2) [19FECC82] (AR v2)Трек 16 : извлечено точно (доверие 2) [2B9973A5] (AR v2)Трек 17 : извлечено точно (доверие 2) [8D6B7446] (AR v2)Трек 18 : извлечено точно (доверие 2) [E6F6EC40] (AR v2)Трек 19 : извлечено точно (доверие 2) [459968C0] (AR v2)Трек 20 : извлечено точно (доверие 2) [ECFC6840] (AR v2)
Все треки извлечены точно
Конец отчёта
==== Контрольная сумма отчёта BFA880F9F5A22E9E26B97BD1B3CD41AEE1B5907BD75313E8ECB76ECAEB5D1ABC ====

Замер динамического диапазонаCD1

foobar2000 1.2.9 / Замер динамического диапазона (DR) 1.1.1
Дата отчёта: 2016-02-04 22:47:40
--------------------------------------------------------------------------------
Анализ: Les Petits Chanteurs a la Croix de Bois / Platinum Collection (Disc 1)
--------------------------------------------------------------------------------
DR Пики RMS Продолжительность трека
--------------------------------------------------------------------------------
DR10 0.00 дБ -14.06 дБ 3:21 01-Ah quand reviendra-t-il le temps de Noel
DR11 0.00 дБ -13.76 дБ 1:05 02-Noel yougoslave
DR12 -0.29 дБ -17.55 дБ 3:54 03-Cest le jour de la Noel
DR10 0.00 дБ -15.69 дБ 4:06 04-Cetait le premier Noel
DR12 0.00 дБ -17.64 дБ 2:10 05-Douce nuit sainte nuit
DR12 0.00 дБ -15.89 дБ 3:32 06-Il est ne le divin enfant
DR13 0.00 дБ -17.30 дБ 3:30 07-La legende de Saint-Nicolas
DR11 -1.23 дБ -17.27 дБ 2:19 08-Le voyage a Bethleem
DR13 -0.50 дБ -18.33 дБ 4:23 09-Le bel ange du ciel
DR13 -1.01 дБ -20.37 дБ 3:34 10-Le sommeil de L enfant-Jesus
DR10 0.00 дБ -14.71 дБ 3:09 11-Les anges dans nos campagnes
DR12 0.00 дБ -17.90 дБ 3:01 12-Les rois mages
DR10 -0.15 дБ -14.05 дБ 2:48 13-Marche des rois
DR12 -0.09 дБ -17.20 дБ 2:26 14-Noel au Tyrol autrichien
DR13 0.00 дБ -17.40 дБ 1:57 15-Noel bourguignon
DR11 0.00 дБ -15.21 дБ 4:44 16-Noel des iles
DR11 0.00 дБ -14.57 дБ 3:25 17-Le Noel des petits santons
DR11 0.00 дБ -15.46 дБ 2:40 18-Noel nouveau est venu
DR9 0.00 дБ -13.81 дБ 3:56 19-Stille Nacht (Douce Nuit)
DR14 -0.13 дБ -19.03 дБ 2:57 20-Trois anges sont venus ce soir
--------------------------------------------------------------------------------
Количество треков: 20
Реальные значения DR: DR11
Частота: 44100 Гц
Каналов: 2
Разрядность: 16
Битрейт: 553 кбит/с
Кодек: FLAC
================================================================================

CD2

foobar2000 1.2.9 / Замер динамического диапазона (DR) 1.1.1Дата отчёта: 2016-02-04 22:49:15
--------------------------------------------------------------------------------Анализ: Les Petits Chanteurs a la Croix de Bois / Platinum Collection (Disc 2)--------------------------------------------------------------------------------
DR Пики RMS Продолжительность трека--------------------------------------------------------------------------------DR15 0.00 дБ -20.55 дБ 3:27 01-Avec la garde montante (Carmen acte I)DR12 -0.03 дБ -15.90 дБ 3:04 02-Adeste FidelisDR14 -0.03 дБ -19.46 дБ 8:57 03-Cantate de la paixDR13 -0.03 дБ -18.78 дБ 3:02 04-Deep RiverDR10 -0.03 дБ -14.85 дБ 3:29 05-La nuitDR14 -0.27 дБ -21.08 дБ 3:57 06-Bonjour monseigneurDR11 -2.31 дБ -19.34 дБ 3:32 07-O dieu de clemenceDR12 -5.03 дБ -20.17 дБ 2:57 08-Tece Voda TeceDR12 -2.05 дБ -17.67 дБ 4:04 09-Votre divin maitre NoelDR11 0.00 дБ -16.61 дБ 3:16 10-Ave MariaDR11 0.00 дБ -16.37 дБ 2:40 11-Ave Vera VirginitasDR9 -6.00 дБ -18.97 дБ 2:36 12-Choeur final de la passion selon Saint-JeaDR11 -0.81 дБ -16.45 дБ 4:02 13-Descende in hortum (Descend dans le jardin)DR11 -3.15 дБ -20.14 дБ 2:51 14-Domine Non Sum DignusDR12 -0.03 дБ -17.04 дБ 4:16 15-Ego sum panis vivusDR13 -0.03 дБ -15.95 дБ 2:37 16-Exsultate DeoDR12 -0.09 дБ -16.81 дБ 3:04 17-Gaudent in celisDR11 -0.03 дБ -17.78 дБ 5:54 18-O vos omnesDR12 -0.44 дБ -17.99 дБ 5:09 19-Requiem extrait de missa pro defunctisDR14 -0.43 дБ -21.20 дБ 2:52 20-Salve Regina (gregorien)--------------------------------------------------------------------------------
Количество треков: 20Реальные значения DR: DR12
Частота: 44100 ГцКаналов: 2Разрядность: 16Битрейт: 535 кбит/сКодек: FLAC================================================================================

CD3

foobar2000 1.2.9 / Замер динамического диапазона (DR) 1.1.1Дата отчёта: 2016-02-04 22:44:33
--------------------------------------------------------------------------------Анализ: Les Petits Chanteurs a la Croix de Bois / Platinum Collection (Disc 3)--------------------------------------------------------------------------------
DR Пики RMS Продолжительность трека--------------------------------------------------------------------------------DR13 -0.56 дБ -19.02 дБ 2:59 01-A La Claire FontaineDR13 -1.37 дБ -17.99 дБ 4:12 02-Adieu Foulards Adieu MadrasDR13 -1.13 дБ -18.40 дБ 2:24 03-AlouetteDR16 -0.36 дБ -22.40 дБ 3:08 04-Chante rossignolDR12 -4.40 дБ -21.24 дБ 3:14 05-Do-do, L enfant DoDR13 -2.04 дБ -18.88 дБ 2:05 06-Gentil CoquelicotDR14 -0.86 дБ -19.51 дБ 3:40 07-La bourreeDR12 0.00 дБ -15.65 дБ 4:00 08-La MerDR12 0.00 дБ -16.56 дБ 2:42 09-L enfant au tambourDR12 -0.04 дБ -19.69 дБ 2:12 10-Les trois jeunes tamboursDR12 0.00 дБ -16.42 дБ 3:05 11-Mes jeunes anneesDR13 -0.75 дБ -18.43 дБ 3:05 12-Ne pleure pas JeannetteDR13 -0.50 дБ -18.51 дБ 3:12 13-Nous n irons plus au boisDR14 -0.21 дБ -17.81 дБ 3:35 14-Le chant des oiseauxDR12 -0.28 дБ -17.24 дБ 3:23 15-Sur Le Pont d AvignonDR12 -2.35 дБ -17.22 дБ 2:45 16-Dors Ma ColombeDR12 -0.21 дБ -18.16 дБ 2:49 17-A LauterbachDR13 -0.17 дБ -17.54 дБ 2:16 18-Allons pastoureauxDR12 0.00 дБ -17.40 дБ 3:04 19-Le Rosier De MaiDR15 -0.03 дБ -20.38 дБ 4:57 20-Musette--------------------------------------------------------------------------------
Количество треков: 20Реальные значения DR: DR13
Частота: 44100 ГцКаналов: 2Разрядность: 16Битрейт: 514 кбит/сКодек: FLAC================================================================================
[teatrix.ru].t14706.torrent 
Торрент: Зарегистрирован [ 2016-02-09 12:50 ] · F7FD250365EA07EA919306962267A1213D3D4D8D

Скачать .torrent

Скачать

21 KB

Статус: проверено
Скачан: 0 раз
Размер: 917 MB
terms.php



Быстрый ответ

Имя:

      
Для отправки сообщений необходимо включить JavaScript
Показать сообщения:    

Текущее время: 04-Дек 06:56

Часовой пояс: UTC + 3


Вы можете начинать темы
Вы можете отвечать на сообщения
Вы не можете редактировать свои сообщения
Вы не можете удалять свои сообщения
Вы не можете голосовать в опросах
Вы не можете прикреплять файлы к сообщениям
Вы можете скачивать файлы