(vocal) Peter Schreier, Wolfgang Sawallisch - Schumann, Dichterliebe Op. 48; Brahms; Prokofiev (Шуман, Брамс, Прокофьев) - 1990, FLAC (image+.cue) lossless


 

[Цитировать]

Peter Schreier, Wolfgang Sawallisch - Schumann, Dichterliebe Op. 48; Brahms; Prokofiev
Жанр: vocal
Страна-производитель диска: USA
Год издания диска: 1990
Издатель (лейбл): PHILIPS
Номер по каталогу: 426 237-2
Дата записи: 1984
Аудиокодек: FLAC
Тип рипа: image+.cue
Битрейт аудио: lossless
Продолжительность: 01:11:45
Источник: demonoid.pw
Наличие сканов в содержимом раздачи: да
Треклист:
Johannes Brahms
Deutsche Volkslieder, WoO 33
1. Sagt mir, O schönste Schäf'rin mein
2. Guten Abend, mein tausiger Schatz
3. Schwesterlein
4. Wie komm ich denn zur Tür herein
Sergei Prokofiev
Children's Songs, Op. 68
5. Das Plappermaul (Schwatzlieschen)
6. Süße Grüße
7. Die Ferkelchen
8. Das Häßliche Entlein, Op. 18
Robert Schumann
Dichterliebe, Op. 48
9. Im wunderschoenen Monat Mai
10. Aus meinen Tranen sprießen
11. Die Rose, die Lilie, die Taube, die Sonne
12. Wenn ich in deine Augen seh'
13. Ich will meine Seele tauchen
14. Im Rhein, im heiligen Strome
15. Ich grolle nicht
16. Und wußten's die Blumen, die kleinen
17. Das ist ein Floten und Geigen
18. Hor' ich das Liedchen klingen
19. Ein Jungling liebt ein Madchen
20. Am leuchtenden Sommermorgen
21. Ich hab' im Traum geweinet
22. Allnachtlich im Traume seh' ich dich
23. Aus alten Marchen winkt es
24. Die alten, bosen Lieder
25. Myrthen, Op. 25 - Der Nußbaum
Johannes Brahms
26. Wiegenlied, Op. 49/4
Исполнители:
Peter Schreier - tenor, Wolfgang Sawallisch - piano

Лог создания рипа

Exact Audio Copy V1.0 beta 6 from 9. April 2015
EAC extraction logfile from 6. January 2016, 13:11
Peter Schreier, Wolfgang Sawallisch / Schumann, Dichterliebe; Brahms; Prokofiev
Used drive : Optiarc DVD RW AD-7283S Adapter: 1 ID: 0
Read mode : SecureUtilize accurate stream : YesDefeat audio cache : YesMake use of C2 pointers : No
Read offset correction : 48Overread into Lead-In and Lead-Out : NoFill up missing offset samples with silence : YesDelete leading and trailing silent blocks : NoNull samples used in CRC calculations : YesUsed interface : Native Win32 interface for Win NT & 2000
Used output format : Internal WAV RoutinesSample format : 44.100 Hz; 16 Bit; Stereo
TOC of the extracted CD
Track | Start | Length | Start sector | End sector --------------------------------------------------------- 1 | 0:00.00 | 3:07.08 | 0 | 14032 2 | 3:07.08 | 3:25.25 | 14033 | 29432 3 | 6:32.33 | 3:14.00 | 29433 | 43982 4 | 9:46.33 | 2:26.50 | 43983 | 54982 5 | 12:13.08 | 5:13.00 | 54983 | 78457 6 | 17:26.08 | 2:30.25 | 78458 | 89732 7 | 19:56.33 | 2:29.00 | 89733 | 100907 8 | 22:25.33 | 12:16.00 | 100908 | 156107 9 | 34:41.33 | 1:44.57 | 156108 | 163964 10 | 36:26.15 | 1:14.08 | 163965 | 169522 11 | 37:40.23 | 0:39.10 | 169523 | 172457 12 | 38:19.33 | 1:38.62 | 172458 | 179869 13 | 39:58.20 | 0:59.50 | 179870 | 184344 14 | 40:57.70 | 2:34.00 | 184345 | 195894 15 | 43:31.70 | 2:11.38 | 195895 | 205757 16 | 45:43.33 | 1:25.50 | 205758 | 212182 17 | 47:09.08 | 1:23.25 | 212183 | 218432 18 | 48:32.33 | 1:49.00 | 218433 | 226607 19 | 50:21.33 | 1:12.00 | 226608 | 232007 20 | 51:33.33 | 2:07.00 | 232008 | 241532 21 | 53:40.33 | 2:46.50 | 241533 | 254032 22 | 56:27.08 | 1:38.25 | 254033 | 261407 23 | 58:05.33 | 3:06.50 | 261408 | 275407 24 | 61:12.08 | 4:49.25 | 275408 | 297107 25 | 66:01.33 | 3:24.00 | 297108 | 312407 26 | 69:25.33 | 2:20.00 | 312408 | 322907
Range status and errors
Selected range
Filename D:\WORK\Schumann - Dichterliebe Brahms - Deutsche Volkslieder\Peter Schreier, Wolfgang Sawallisch - Schumann, Dichterliebe; Brahms; Prokofiev.wav
Peak level 97.3 % Extraction speed 4.5 X Range quality 100.0 % Copy CRC A8FE19D1 Copy OK
No errors occurred
AccurateRip summary
Track 1 not present in databaseTrack 2 not present in databaseTrack 3 not present in databaseTrack 4 not present in databaseTrack 5 not present in databaseTrack 6 not present in databaseTrack 7 not present in databaseTrack 8 not present in databaseTrack 9 not present in databaseTrack 10 not present in databaseTrack 11 not present in databaseTrack 12 not present in databaseTrack 13 not present in databaseTrack 14 not present in databaseTrack 15 not present in databaseTrack 16 not present in databaseTrack 17 not present in databaseTrack 18 not present in databaseTrack 19 not present in databaseTrack 20 not present in databaseTrack 21 not present in databaseTrack 22 not present in databaseTrack 23 not present in databaseTrack 24 not present in databaseTrack 25 not present in databaseTrack 26 not present in database
None of the tracks are present in the AccurateRip database
End of status report
---- CUETools DB Plugin V2.1.6
[CTDB TOCID: .GYTQv3KtYvVEWhjHOtz0jX4Lvs-] disk not present in databaseSubmit result: .GYTQv3KtYvVEWhjHOtz0jX4Lvs- has been uploaded

Лог проверки качества

AUDIOCHECKER v2.0 beta (build 457) - by Dester - opdester@freemail.hu~~~~~~~~~~~~~~~~~~~~~~~~~~~~~~~~~~-=== DO NOT EDIT THIS FILE! ===-
Path: ...\Schumann - Dichterliebe Brahms - Deutsche Volkslieder
1 -=- Peter Schreier, Wolfgang Sawallisch - Schumann, Dichterliebe; Brahms; Prokofiev.wav -=- CDDA (100%)
263503860

Скриншот спектра частот

Доп. информация: Live recording, Munich, 6/2/1984



Показать сообщения:    

Текущее время: 03-Дек 20:44

Часовой пояс: UTC + 3


Вы не можете начинать темы
Вы не можете отвечать на сообщения
Вы не можете редактировать свои сообщения
Вы не можете удалять свои сообщения
Вы не можете голосовать в опросах
Вы не можете прикреплять файлы к сообщениям
Вы не можете скачивать файлы