(classical, vocal) Beethoven Lieder - An die ferne Geliebte - Peter Schreier, Andras Schiff - 1996, FLAC (image+.cue) lossless


 

[Цитировать]

Ludwig van Beethoven Lieder - An die ferne Geliebte - Peter Schreier, Andras Schiff
Жанр: classical, vocal
Страна-производитель диска: Japan
Год издания диска: 1996
Издатель (лейбл): LONDON
Номер по каталогу: POCL-1645
Дата записи: 19-21 Sep. 1994
Аудиокодек: FLAC
Тип рипа: image+.cue
Битрейт аудио: lossless
Продолжительность: 01:13:35
Источник: demonoid.pw
Наличие сканов в содержимом раздачи: да
Треклист:
01. Mailied, op. 52, Nr. 4
02. Neue Liebe, neues Leben, op. 75, Nr. 2
03. Adelaide, op. 46
04. Aus Goethes Faust (Der Floh), op. 75, Nr. 3
05. Andenken, WoO 136
06. Ich liebe dich, WoO 123
An die ferne Geliebte, op. 98
07. 1 Auf dem Hugel sitz ich
08. 2 Wo die Berge so blau
09. 3 Leichte Segler in den Hohen
10. 4 Diese Wolken in den Hohen
11. 5 Es kehret der Maien
12. 6 Nimm sie hin denn, diese Lieder
13. Lied aus der Ferne, WoO 137
14. Wonne der Wehmut, op. 83, Nr. 1
15. Sehnsucht, op. 83, Nr. 1
16. Mit einem gemalten Band, op. 83, Nr. 3
17. An die Hoffnung, op. 94
18. Der Liebende, WoO 129
19. Der Wachtelschlag, WoO 129
20. Resignation, WoO 149
21. Seufzer eines Ungeliebten und Gegenliebe, WoO 118
22. Der Kuss, op. 128
23. Abendlied unterm gestirnten Himmel, WoO 150
Исполнители:
Peter Scherier: Tenor
Andras Schiff: Piano

Лог создания рипа

Exact Audio Copy V1.0 beta 6 from 9. April 2015
EAC extraction logfile from 6. January 2016, 9:31
Peter Schreier / Beethoven: An die ferne Geliebte
Used drive : Optiarc DVD RW AD-7283S Adapter: 1 ID: 0
Read mode : SecureUtilize accurate stream : YesDefeat audio cache : YesMake use of C2 pointers : No
Read offset correction : 48Overread into Lead-In and Lead-Out : NoFill up missing offset samples with silence : YesDelete leading and trailing silent blocks : NoNull samples used in CRC calculations : YesUsed interface : Native Win32 interface for Win NT & 2000
Used output format : Internal WAV RoutinesSample format : 44.100 Hz; 16 Bit; Stereo
TOC of the extracted CD
Track | Start | Length | Start sector | End sector --------------------------------------------------------- 1 | 0:00.00 | 2:29.19 | 0 | 11193 2 | 2:29.19 | 3:07.12 | 11194 | 25230 3 | 5:36.31 | 5:43.37 | 25231 | 50992 4 | 11:19.68 | 2:47.61 | 50993 | 63578 5 | 14:07.54 | 2:39.24 | 63579 | 75527 6 | 16:47.03 | 1:52.00 | 75528 | 83927 7 | 18:39.03 | 2:36.12 | 83928 | 95639 8 | 21:15.15 | 1:38.12 | 95640 | 103001 9 | 22:53.27 | 1:30.24 | 103002 | 109775 10 | 24:23.51 | 0:55.54 | 109776 | 113954 11 | 25:19.30 | 2:30.33 | 113955 | 125237 12 | 27:49.63 | 4:12.36 | 125238 | 144173 13 | 32:02.24 | 3:43.12 | 144174 | 160910 14 | 35:45.36 | 2:59.24 | 160911 | 174359 15 | 38:44.60 | 2:04.00 | 174360 | 183659 16 | 40:48.60 | 2:09.36 | 183660 | 193370 17 | 42:58.21 | 7:42.13 | 193371 | 228033 18 | 50:40.34 | 2:28.61 | 228034 | 239194 19 | 53:09.20 | 3:47.37 | 239195 | 256256 20 | 56:56.57 | 3:09.36 | 256257 | 270467 21 | 60:06.18 | 5:53.49 | 270468 | 296991 22 | 65:59.67 | 2:12.12 | 296992 | 306903 23 | 68:12.04 | 5:23.00 | 306904 | 331128
Range status and errors
Selected range
Filename D:\WORK\Beethoven - An die ferne Geliebte\Peter Schreier - Beethoven - An die ferne Geliebte.wav
Peak level 92.5 % Extraction speed 4.5 X Range quality 100.0 % Copy CRC 7C36EC97 Copy OK
No errors occurred
AccurateRip summary
Track 1 not present in databaseTrack 2 not present in databaseTrack 3 not present in databaseTrack 4 not present in databaseTrack 5 not present in databaseTrack 6 not present in databaseTrack 7 not present in databaseTrack 8 not present in databaseTrack 9 not present in databaseTrack 10 not present in databaseTrack 11 not present in databaseTrack 12 not present in databaseTrack 13 not present in databaseTrack 14 not present in databaseTrack 15 not present in databaseTrack 16 not present in databaseTrack 17 not present in databaseTrack 18 not present in databaseTrack 19 not present in databaseTrack 20 not present in databaseTrack 21 not present in databaseTrack 22 not present in databaseTrack 23 not present in database
None of the tracks are present in the AccurateRip database
End of status report
---- CUETools DB Plugin V2.1.6
[CTDB TOCID: hqs9ZjVArhp_RdY6de1BqlHw9YQ-] disk not present in databaseSubmit result: hqs9ZjVArhp_RdY6de1BqlHw9YQ- has been uploaded

Лог проверки качества

AUDIOCHECKER v2.0 beta (build 457) - by Dester - opdester@freemail.hu~~~~~~~~~~~~~~~~~~~~~~~~~~~~~~~~~~-=== DO NOT EDIT THIS FILE! ===-
Path: ...\Beethoven - An die ferne Geliebte
01 -=- 01 Mailied, op. 52, Nr. 4.wav -=- MPEG (100%)02 -=- 02 Neue Liebe, neues Leben, op. 75, Nr. 2.wav -=- CDDA (86%)03 -=- 03 Adelaide, op. 46.wav -=- MPEG (89%)04 -=- 04 Aus Goethes Faust (Der Floh), op. 75, Nr. 3.wav -=- CDDA (43%)05 -=- 05 Andenken, WoO 136.wav -=- MPEG (100%)06 -=- 06 Ich liebe dich, WoO 123.wav -=- MPEG (93%)07 -=- 07 An die ferne Geliebte, op. 98, Auf dem Hugel sitz ich.wav -=- MPEG (90%)08 -=- 08 An die ferne Geliebte, op. 98, Wo die Berge so blau.wav -=- MPEG (100%)09 -=- 09 An die ferne Geliebte, op. 98, Leichte Segler in dem Hohen.wav -=- MPEG (80%)10 -=- 10 An die ferne Geliebte, op. 98, Diese Wolken in den Hohen.wav -=- MPEG (99%)11 -=- 11 An die ferne Geliebte, op. 98, Es kehret der Maien.wav -=- MPEG (93%)12 -=- 12 An die ferne Geliebte, op. 98, Nimm sie hin denn, diese Lieder.wav -=- MPEG (100%)13 -=- 13 Lied aus der Ferne, WoO 137.wav -=- CDDA (43%)14 -=- 14 Wonne der Wehmut, op. 83, Nr. 1.wav -=- ERROR15 -=- 15 Sehnsucht, op. 83, Nr. 1.wav -=- CDDA (58%)16 -=- 16 Mit einem gemalten Band, op. 83, Nr. 3.wav -=- CDDA (42%)17 -=- 17 An die Hoffnung, op. 94.wav -=- MPEG (89%)18 -=- 18 Der Liebende, WoO 129.wav -=- CDDA (58%)19 -=- 19 Der Wachtelschlag, WoO 129.wav -=- MPEG (80%)20 -=- 20 Resignation, WoO 149.wav -=- MPEG (90%)21 -=- 21 Seufzer eines Ungeliebten und Gegenliebe, WoO 118.wav -=- CDDA (54%)22 -=- 22 Der Kuss, op. 128.wav -=- MPEG (89%)23 -=- 23 Abendlied unterm gestirnten Himmel, WoO 150.wav -=- MPEG (92%)
Summary 22,73% CDDA
201130772

Скриншот спектра частот

Доп. информация: Recording
Producer: Christopher Raeburn
Engineer: Neil Hutchinson
Location: Brahms Saal, Musikverein. Vienna
Dates: 19-21 Sep. 1994



Показать сообщения:    

Текущее время: 11-Дек 10:57

Часовой пояс: UTC + 3


Вы не можете начинать темы
Вы не можете отвечать на сообщения
Вы не можете редактировать свои сообщения
Вы не можете удалять свои сообщения
Вы не можете голосовать в опросах
Вы не можете прикреплять файлы к сообщениям
Вы не можете скачивать файлы