(Classical) Joan Baptista Cabanilles - Mortales que amais: Complete Vocal Music - Amystis, Jose Duce Chenoll - 2014, FLAC (image+.cue) lossless


 

[Цитировать]

Joan Baptista Cabanilles - Mortales que amáis: Complete Vocal Music - Amystis, José Duce Chenoll
Жанр: Classical
Год издания диска: 2014
Издатель (лейбл): Brilliant Classics
Номер по каталогу: 94781
Дата записи: 2012
Аудиокодек: FLAC
Тип рипа: image+.cue
Битрейт аудио: lossless
Продолжительность: 104:19
Источник: собственный рип
Наличие сканов в содержимом раздачи: да
Треклист:
Joan Baptista Cabanilles (1644-1712)
CD1
[1] Beatus vir a 12
[2]-[5] Mass a 6
[6] Magnificat a 12
[7] Mortales que amáis a un dios inmortal a 4
CD2
[1] Ah! de la región celeste a 15
[2] El galán que ronda las calles a 2
[3] Atiende mis suspiros a 4
[4] Arroyuelo no huyas a 4
[5] Son las fieras a 3
[6] Mi esposo asesta sus flechas a 11
Исполнители:
Amystis chamber choir & musicological society
José Duce Chenoll conductor

Лог создания рипа: CD1

Exact Audio Copy V1.0 beta 3 from 29. August 2011
EAC extraction logfile from 16. December 2014, 15:35
Amystis, Jose Duce Chenoll / Cabanilles - Mortales que amais - CD1
Used drive : HL-DT-STDVDRRW GWA-4164B Adapter: 5 ID: 0
Read mode : SecureUtilize accurate stream : YesDefeat audio cache : YesMake use of C2 pointers : No
Read offset correction : 102Overread into Lead-In and Lead-Out : NoFill up missing offset samples with silence : YesDelete leading and trailing silent blocks : NoNull samples used in CRC calculations : YesUsed interface : Native Win32 interface for Win NT & 2000
Used output format : User Defined EncoderSelected bitrate : 896 kBit/sQuality : HighAdd ID3 tag : NoCommand line compressor : C:\Program Files\Exact Audio Copy\FLAC\FLAC.EXEAdditional command line options : -V -8 %source%
TOC of the extracted CD
Track | Start | Length | Start sector | End sector --------------------------------------------------------- 1 | 0:00.00 | 13:47.00 | 0 | 62024 2 | 13:47.00 | 3:05.00 | 62025 | 75899 3 | 16:52.00 | 5:53.00 | 75900 | 102374 4 | 22:45.00 | 8:37.74 | 102375 | 141223 5 | 31:22.74 | 2:09.01 | 141224 | 150899 6 | 33:32.00 | 9:03.00 | 150900 | 191624 7 | 42:35.00 | 12:49.00 | 191625 | 249299
Range status and errors
Selected range
Filename D:\temp\Music\Cabanilles - Mortales que amais\CD1\Cabanilles - Mortales que amais - CD1.wav
Peak level 93.4 % Extraction speed 2.6 X Range quality 99.9 % Test CRC D2BEFB79 Copy CRC D2BEFB79 Copy OK
No errors occurred
AccurateRip summary
Track 1 not present in databaseTrack 2 not present in databaseTrack 3 not present in databaseTrack 4 not present in databaseTrack 5 not present in databaseTrack 6 not present in databaseTrack 7 not present in database
None of the tracks are present in the AccurateRip database
End of status report
==== Log checksum 67E20111F6E32BDD2E452CC68ED61DEA17999883A0C2C04839C387903D7333E6 ====

Лог создания рипа: CD2

Exact Audio Copy V1.0 beta 3 from 29. August 2011
EAC extraction logfile from 16. December 2014, 16:34
Amystis, Jose Duce Chenoll / Cabanilles - Mortales que amais - CD2
Used drive : HL-DT-STDVDRRW GWA-4164B Adapter: 5 ID: 0
Read mode : SecureUtilize accurate stream : YesDefeat audio cache : YesMake use of C2 pointers : No
Read offset correction : 102Overread into Lead-In and Lead-Out : NoFill up missing offset samples with silence : YesDelete leading and trailing silent blocks : NoNull samples used in CRC calculations : YesUsed interface : Native Win32 interface for Win NT & 2000
Used output format : User Defined EncoderSelected bitrate : 896 kBit/sQuality : HighAdd ID3 tag : NoCommand line compressor : C:\Program Files\Exact Audio Copy\FLAC\FLAC.EXEAdditional command line options : -V -8 %source%
TOC of the extracted CD
Track | Start | Length | Start sector | End sector --------------------------------------------------------- 1 | 0:00.00 | 15:44.00 | 0 | 70799 2 | 15:44.00 | 4:57.00 | 70800 | 93074 3 | 20:41.00 | 4:32.00 | 93075 | 113474 4 | 25:13.00 | 4:45.00 | 113475 | 134849 5 | 29:58.00 | 5:37.00 | 134850 | 160124 6 | 35:35.00 | 13:20.00 | 160125 | 220124
Range status and errors
Selected range
Filename D:\temp\Music\Cabanilles - Mortales que amais\CD2\Cabanilles - Mortales que amais - CD2.wav
Peak level 94.5 % Extraction speed 1.9 X Range quality 100.0 % Test CRC A0D4240F Copy CRC A0D4240F Copy OK
No errors occurred
AccurateRip summary
Track 1 not present in databaseTrack 2 not present in databaseTrack 3 not present in databaseTrack 4 not present in databaseTrack 5 not present in databaseTrack 6 not present in database
None of the tracks are present in the AccurateRip database
End of status report
==== Log checksum CFD8910703492AD09469AA2F06AF36A99FD09A57EFDAFFEC7E448ECB911A3E14 ====



Показать сообщения:    

Текущее время: 11-Дек 14:56

Часовой пояс: UTC + 3


Вы не можете начинать темы
Вы не можете отвечать на сообщения
Вы не можете редактировать свои сообщения
Вы не можете удалять свои сообщения
Вы не можете голосовать в опросах
Вы не можете прикреплять файлы к сообщениям
Вы не можете скачивать файлы