(Vocal / Вокал) Фёдор Шаляпин/Feodor Chaliapin - Вдоль по Питерской. Альбом 3. - 2001 (Schumann,Рубинштейн,Глазунов,Bellini,Rossini,Meyerbeer,Mozart,Римский-Корсаков,Мусоргский,Глинка,Beethoven,Рахманинов,Gounod), APE (tracks+.cue) lossless


 

[Цитировать]

Фёдор Шаляпин/Feodor Chaliapin - Вдоль по Питерской. Альбом 3.
Жанр: Vocal / Вокал
Страна-производитель диска: Россия
Год издания диска: 2001
Номер по каталогу: ORFS3-2001
Аудиокодек: APE
Тип рипа: tracks+.cue
Битрейт аудио: lossless
Продолжительность: 72:14
Источник: собственный рип
Наличие сканов в содержимом раздачи: да
Треклист:
1.Два гренадера (Р. Шуман)
2.На воздушном океане (из оперы "Демон" А. Рубинштейна)
3.Не осенний мелкий дождичек (М. Глинка)
4.Вакхическая песня (А. Глазунов)
5.Ария Оровезо (из оперы "Норма" В. Беллини)
6.Ария Дона Базилио "Ла калунья" (из оперы "Севильский цирюльник" Д. Россини)
7.Каватина Родольфо (из оперы "Сомнамбула" В. Беллини)
8.Воззвание Бертрама (из оперы "Роберт-Дьявол" Д. Мейербера)
9.Ария Лепорелло (из оперы "Дон Жуан" В.А. Моцарта)
10.Вдоль по Питерской
11.Трепак (М. Мусоргский)
12.Ночной смотр (М. Глинка)
13.Пророк (Н. Римский-Корсаков)
14.Эй, ухнем!
15.Под камнем могильным (Л.Бетховен)
16.Каватина Алеко (из оперы "Алеко" С. Рахманинова)
17.Из-за острова на стрежень (Стенька Разин)
18.Сомнение (М. Глинка)
19.Серенада Мефистофеля (из оперы "Фауст" Ш. Гуно)
Исполнители:
Федор Шаляпин, бас

Лог создания рипа

Exact Audio Copy V1.0 beta 6 from 9. April 2015
EAC extraction logfile from 19. May 2015, 20:04
Feodor Chaliapin / Вдоль по Питерской. Альбом 3
Used drive : Optiarc DVD RW AD-7200S Adapter: 1 ID: 0
Read mode : SecureUtilize accurate stream : YesDefeat audio cache : YesMake use of C2 pointers : No
Read offset correction : 48Overread into Lead-In and Lead-Out : NoFill up missing offset samples with silence : YesDelete leading and trailing silent blocks : NoNull samples used in CRC calculations : YesUsed interface : Native Win32 interface for Win NT & 2000Gap handling : Appended to previous track
Used output format : User Defined EncoderSelected bitrate : 1024 kBit/sQuality : HighAdd ID3 tag : NoCommand line compressor : C:\program files\Monkey's Audio\wapet.exeAdditional command line options : %dest% -t "Genre=%genre%" -t "Artist=%artist%" -t "Title=%title%" -t "Album=%albumtitle%" -t "Year=%year%" -t "Track=%tracknr%" -t "Comment=%comment%" mac.exe %source% %dest% -c4000
TOC of the extracted CD
Track | Start | Length | Start sector | End sector --------------------------------------------------------- 1 | 0:00.00 | 3:05.03 | 0 | 13877 2 | 3:05.03 | 4:32.10 | 13878 | 34287 3 | 7:37.13 | 4:06.14 | 34288 | 52751 4 | 11:43.27 | 3:33.47 | 52752 | 68773 5 | 15:16.74 | 4:15.41 | 68774 | 87939 6 | 19:32.40 | 3:53.43 | 87940 | 105457 7 | 23:26.08 | 3:03.45 | 105458 | 119227 8 | 26:29.53 | 3:43.72 | 119228 | 136024 9 | 30:13.50 | 5:22.03 | 136025 | 160177 10 | 35:35.53 | 1:57.11 | 160178 | 168963 11 | 37:32.64 | 4:04.10 | 168964 | 187273 12 | 41:36.74 | 3:59.60 | 187274 | 205258 13 | 45:36.59 | 3:42.12 | 205259 | 221920 14 | 49:18.71 | 3:13.73 | 221921 | 236468 15 | 52:32.69 | 3:21.64 | 236469 | 251607 16 | 55:54.58 | 4:19.52 | 251608 | 271084 17 | 60:14.35 | 4:07.21 | 271085 | 289630 18 | 64:21.56 | 4:34.74 | 289631 | 310254 19 | 68:56.55 | 3:11.57 | 310255 | 324636
Track 1
Filename D:\Feodor Chaliapin\(2001) Вдоль по Питерской. Альбом 3\Feodor Chaliapin - Вдоль по Питерской. Альбом 3 - 01. Два гренадера.wav
Pre-gap length 0:00:02.00
Peak level 86.3 % Extraction speed 2.3 X Track quality 100.0 % Test CRC 26F99FC2 Copy CRC 26F99FC2 Accurately ripped (confidence 1) [825B0556] (AR v1) Copy OK
Track 2
Filename D:\Feodor Chaliapin\(2001) Вдоль по Питерской. Альбом 3\Feodor Chaliapin - Вдоль по Питерской. Альбом 3 - 02. На воздушном океане (из оперы ''Демон'').wav
Pre-gap length 0:00:02.00
Peak level 71.2 % Extraction speed 2.7 X Track quality 100.0 % Test CRC BAB73DA0 Copy CRC BAB73DA0 Accurately ripped (confidence 1) [276E1004] (AR v1) Copy OK
Track 3
Filename D:\Feodor Chaliapin\(2001) Вдоль по Питерской. Альбом 3\Feodor Chaliapin - Вдоль по Питерской. Альбом 3 - 03. Не осенний мелкий дождичек.wav
Pre-gap length 0:00:02.00
Peak level 52.1 % Extraction speed 2.9 X Track quality 100.0 % Test CRC 1F5D9120 Copy CRC 1F5D9120 Accurately ripped (confidence 1) [AA1E8CEC] (AR v1) Copy OK
Track 4
Filename D:\Feodor Chaliapin\(2001) Вдоль по Питерской. Альбом 3\Feodor Chaliapin - Вдоль по Питерской. Альбом 3 - 04. Вакхическая песня.wav
Pre-gap length 0:00:02.00
Peak level 64.8 % Extraction speed 3.0 X Track quality 100.0 % Test CRC 0E70468D Copy CRC 0E70468D Accurately ripped (confidence 1) [9E4503E2] (AR v1) Copy OK
Track 5
Filename D:\Feodor Chaliapin\(2001) Вдоль по Питерской. Альбом 3\Feodor Chaliapin - Вдоль по Питерской. Альбом 3 - 05. Ария Оровезо из оперы ''Норма'' В.Беллини.wav
Pre-gap length 0:00:02.00
Peak level 48.4 % Extraction speed 3.3 X Track quality 100.0 % Test CRC B03BAB4C Copy CRC B03BAB4C Accurately ripped (confidence 1) [52270737] (AR v1) Copy OK
Track 6
Filename D:\Feodor Chaliapin\(2001) Вдоль по Питерской. Альбом 3\Feodor Chaliapin - Вдоль по Питерской. Альбом 3 - 06. Ария Дона Базилио ''Ла калунья'' из оперы ''Севильский цирюльник''.wav
Pre-gap length 0:00:02.00
Peak level 59.5 % Extraction speed 3.4 X Track quality 100.0 % Test CRC B80E7D88 Copy CRC B80E7D88 Accurately ripped (confidence 1) [FED7BA57] (AR v1) Copy OK
Track 7
Filename D:\Feodor Chaliapin\(2001) Вдоль по Питерской. Альбом 3\Feodor Chaliapin - Вдоль по Питерской. Альбом 3 - 07. Каватина Родольфо из оперы ''Сомнамбула'' В. Беллини.wav
Pre-gap length 0:00:02.00
Peak level 50.1 % Extraction speed 3.0 X Track quality 99.9 % Test CRC 9BF92B0F Copy CRC 9BF92B0F Accurately ripped (confidence 1) [38605911] (AR v1) Copy OK
Track 8
Filename D:\Feodor Chaliapin\(2001) Вдоль по Питерской. Альбом 3\Feodor Chaliapin - Вдоль по Питерской. Альбом 3 - 08. Воззвание Бертрама из оперы ''Роберт-Дьявол'' Д.Мейербера.wav
Pre-gap length 0:00:02.00
Peak level 52.8 % Extraction speed 3.7 X Track quality 100.0 % Test CRC A0A0E6CF Copy CRC A0A0E6CF Accurately ripped (confidence 1) [8E9C5387] (AR v1) Copy OK
Track 9
Filename D:\Feodor Chaliapin\(2001) Вдоль по Питерской. Альбом 3\Feodor Chaliapin - Вдоль по Питерской. Альбом 3 - 09. Ария Лепорелло из оперы ''Дон Жуан''.wav
Pre-gap length 0:00:02.00
Peak level 87.7 % Extraction speed 3.7 X Track quality 99.9 % Test CRC 620709A7 Copy CRC 620709A7 Accurately ripped (confidence 1) [3A0AD96F] (AR v1) Copy OK
Track 10
Filename D:\Feodor Chaliapin\(2001) Вдоль по Питерской. Альбом 3\Feodor Chaliapin - Вдоль по Питерской. Альбом 3 - 10. Вдоль по Питерской.wav
Pre-gap length 0:00:02.00
Peak level 68.1 % Extraction speed 3.6 X Track quality 100.0 % Test CRC 895F5E13 Copy CRC 895F5E13 Accurately ripped (confidence 1) [0DCFD028] (AR v1) Copy OK
Track 11
Filename D:\Feodor Chaliapin\(2001) Вдоль по Питерской. Альбом 3\Feodor Chaliapin - Вдоль по Питерской. Альбом 3 - 11. Трепак.wav
Pre-gap length 0:00:02.00
Peak level 73.6 % Extraction speed 4.3 X Track quality 100.0 % Test CRC 175D1AC0 Copy CRC 175D1AC0 Accurately ripped (confidence 1) [EC3C6B1A] (AR v1) Copy OK
Track 12
Filename D:\Feodor Chaliapin\(2001) Вдоль по Питерской. Альбом 3\Feodor Chaliapin - Вдоль по Питерской. Альбом 3 - 12. Ночной смотр.wav
Pre-gap length 0:00:02.00
Peak level 75.3 % Extraction speed 4.4 X Track quality 100.0 % Test CRC 15A22893 Copy CRC 15A22893 Accurately ripped (confidence 1) [72F99684] (AR v1) Copy OK
Track 13
Filename D:\Feodor Chaliapin\(2001) Вдоль по Питерской. Альбом 3\Feodor Chaliapin - Вдоль по Питерской. Альбом 3 - 13. Пророк.wav
Pre-gap length 0:00:02.00
Peak level 56.1 % Extraction speed 4.5 X Track quality 100.0 % Test CRC 4788B0DA Copy CRC 4788B0DA Accurately ripped (confidence 1) [B987978F] (AR v1) Copy OK
Track 14
Filename D:\Feodor Chaliapin\(2001) Вдоль по Питерской. Альбом 3\Feodor Chaliapin - Вдоль по Питерской. Альбом 3 - 14. Эй, ухнем!.wav
Pre-gap length 0:00:02.00
Peak level 57.4 % Extraction speed 4.5 X Track quality 100.0 % Test CRC D05ABFC1 Copy CRC D05ABFC1 Accurately ripped (confidence 1) [190501F9] (AR v1) Copy OK
Track 15
Filename D:\Feodor Chaliapin\(2001) Вдоль по Питерской. Альбом 3\Feodor Chaliapin - Вдоль по Питерской. Альбом 3 - 15. Под камнем могильным.wav
Pre-gap length 0:00:02.00
Peak level 59.5 % Extraction speed 4.0 X Track quality 99.9 % Test CRC 7F4E40AD Copy CRC 7F4E40AD Accurately ripped (confidence 1) [E0BFB144] (AR v1) Copy OK
Track 16
Filename D:\Feodor Chaliapin\(2001) Вдоль по Питерской. Альбом 3\Feodor Chaliapin - Вдоль по Питерской. Альбом 3 - 16. Каватина Алеко из оперы ''Алеко''.wav
Pre-gap length 0:00:02.00
Peak level 72.6 % Extraction speed 4.9 X Track quality 100.0 % Test CRC 0151381D Copy CRC 0151381D Accurately ripped (confidence 1) [2DA81C32] (AR v1) Copy OK
Track 17
Filename D:\Feodor Chaliapin\(2001) Вдоль по Питерской. Альбом 3\Feodor Chaliapin - Вдоль по Питерской. Альбом 3 - 17. Из-за острова на стрежень (Стенька Разин).wav
Pre-gap length 0:00:02.00
Peak level 63.5 % Extraction speed 5.0 X Track quality 100.0 % Test CRC 347FD431 Copy CRC 347FD431 Accurately ripped (confidence 1) [6BEC95FE] (AR v1) Copy OK
Track 18
Filename D:\Feodor Chaliapin\(2001) Вдоль по Питерской. Альбом 3\Feodor Chaliapin - Вдоль по Питерской. Альбом 3 - 18. Сомнение.wav
Pre-gap length 0:00:02.00
Peak level 69.9 % Extraction speed 5.2 X Track quality 100.0 % Test CRC A956B966 Copy CRC A956B966 Accurately ripped (confidence 1) [8D000116] (AR v1) Copy OK
Track 19
Filename D:\Feodor Chaliapin\(2001) Вдоль по Питерской. Альбом 3\Feodor Chaliapin - Вдоль по Питерской. Альбом 3 - 19. Серенада Мефистофеля из оперы ''Фауст''.wav
Pre-gap length 0:00:02.00
Peak level 47.8 % Extraction speed 5.1 X Track quality 100.0 % Test CRC C4205249 Copy CRC C4205249 Accurately ripped (confidence 1) [DF7A17D7] (AR v1) Copy OK
All tracks accurately ripped
No errors occurred
End of status report
==== Log checksum 044A405086DFDB1B49A5EB9BE0188749B3BBC1BCED6B7988F9B1A13E8A836746 ====

Содержание индексной карты (.CUE)

REM GENRE VocalREM DATE 2001REM DISCID 2410E813REM COMMENT "ExactAudioCopy v1.0b6"PERFORMER "Feodor Chaliapin"TITLE "Вдоль по Питерской. Альбом 3"FILE "Feodor Chaliapin - Вдоль по Питерской. Альбом 3 - 01. Два гренадера.wav" WAVE TRACK 01 AUDIO TITLE "Два гренадера" PERFORMER "Feodor Chaliapin" INDEX 01 00:00:00 TRACK 02 AUDIO TITLE "На воздушном океане (из оперы 'Демон')" PERFORMER "Feodor Chaliapin" INDEX 00 03:03:03FILE "Feodor Chaliapin - Вдоль по Питерской. Альбом 3 - 02. На воздушном океане (из оперы ''Демон'').wav" WAVE INDEX 01 00:00:00 TRACK 03 AUDIO TITLE "Не осенний мелкий дождичек" PERFORMER "Feodor Chaliapin" INDEX 00 04:30:10FILE "Feodor Chaliapin - Вдоль по Питерской. Альбом 3 - 03. Не осенний мелкий дождичек.wav" WAVE INDEX 01 00:00:00 TRACK 04 AUDIO TITLE "Вакхическая песня" PERFORMER "Feodor Chaliapin" INDEX 00 04:04:14FILE "Feodor Chaliapin - Вдоль по Питерской. Альбом 3 - 04. Вакхическая песня.wav" WAVE INDEX 01 00:00:00 TRACK 05 AUDIO TITLE "Ария Оровезо из оперы 'Норма' В.Беллини" PERFORMER "Feodor Chaliapin" INDEX 00 03:31:47FILE "Feodor Chaliapin - Вдоль по Питерской. Альбом 3 - 05. Ария Оровезо из оперы ''Норма'' В.Беллини.wav" WAVE INDEX 01 00:00:00 TRACK 06 AUDIO TITLE "Ария Дона Базилио 'Ла калунья' из оперы 'Севильский цирюльник'" PERFORMER "Feodor Chaliapin" INDEX 00 04:13:41FILE "Feodor Chaliapin - Вдоль по Питерской. Альбом 3 - 06. Ария Дона Базилио ''Ла калунья'' из оперы ''Севильский цирюльник''.wav" WAVE INDEX 01 00:00:00 TRACK 07 AUDIO TITLE "Каватина Родольфо из оперы 'Сомнамбула' В. Беллини" PERFORMER "Feodor Chaliapin" INDEX 00 03:51:43FILE "Feodor Chaliapin - Вдоль по Питерской. Альбом 3 - 07. Каватина Родольфо из оперы ''Сомнамбула'' В. Беллини.wav" WAVE INDEX 01 00:00:00 TRACK 08 AUDIO TITLE "Воззвание Бертрама из оперы 'Роберт-Дьявол' Д.Мейербера" PERFORMER "Feodor Chaliapin" INDEX 00 03:01:45FILE "Feodor Chaliapin - Вдоль по Питерской. Альбом 3 - 08. Воззвание Бертрама из оперы ''Роберт-Дьявол'' Д.Мейербера.wav" WAVE INDEX 01 00:00:00 TRACK 09 AUDIO TITLE "Ария Лепорелло из оперы 'Дон Жуан'" PERFORMER "Feodor Chaliapin" INDEX 00 03:41:72FILE "Feodor Chaliapin - Вдоль по Питерской. Альбом 3 - 09. Ария Лепорелло из оперы ''Дон Жуан''.wav" WAVE INDEX 01 00:00:00 TRACK 10 AUDIO TITLE "Вдоль по Питерской" PERFORMER "Feodor Chaliapin" INDEX 00 05:20:03FILE "Feodor Chaliapin - Вдоль по Питерской. Альбом 3 - 10. Вдоль по Питерской.wav" WAVE INDEX 01 00:00:00 TRACK 11 AUDIO TITLE "Трепак" PERFORMER "Feodor Chaliapin" INDEX 00 01:55:11FILE "Feodor Chaliapin - Вдоль по Питерской. Альбом 3 - 11. Трепак.wav" WAVE INDEX 01 00:00:00 TRACK 12 AUDIO TITLE "Ночной смотр" PERFORMER "Feodor Chaliapin" INDEX 00 04:02:10FILE "Feodor Chaliapin - Вдоль по Питерской. Альбом 3 - 12. Ночной смотр.wav" WAVE INDEX 01 00:00:00 TRACK 13 AUDIO TITLE "Пророк" PERFORMER "Feodor Chaliapin" INDEX 00 03:57:60FILE "Feodor Chaliapin - Вдоль по Питерской. Альбом 3 - 13. Пророк.wav" WAVE INDEX 01 00:00:00 TRACK 14 AUDIO TITLE "Эй, ухнем!" PERFORMER "Feodor Chaliapin" INDEX 00 03:40:12FILE "Feodor Chaliapin - Вдоль по Питерской. Альбом 3 - 14. Эй, ухнем!.wav" WAVE INDEX 01 00:00:00 TRACK 15 AUDIO TITLE "Под камнем могильным" PERFORMER "Feodor Chaliapin" INDEX 00 03:11:73FILE "Feodor Chaliapin - Вдоль по Питерской. Альбом 3 - 15. Под камнем могильным.wav" WAVE INDEX 01 00:00:00 TRACK 16 AUDIO TITLE "Каватина Алеко из оперы 'Алеко'" PERFORMER "Feodor Chaliapin" INDEX 00 03:19:64FILE "Feodor Chaliapin - Вдоль по Питерской. Альбом 3 - 16. Каватина Алеко из оперы ''Алеко''.wav" WAVE INDEX 01 00:00:00 TRACK 17 AUDIO TITLE "Из-за острова на стрежень (Стенька Разин)" PERFORMER "Feodor Chaliapin" INDEX 00 04:17:52FILE "Feodor Chaliapin - Вдоль по Питерской. Альбом 3 - 17. Из-за острова на стрежень (Стенька Разин).wav" WAVE INDEX 01 00:00:00 TRACK 18 AUDIO TITLE "Сомнение" PERFORMER "Feodor Chaliapin" INDEX 00 04:05:21FILE "Feodor Chaliapin - Вдоль по Питерской. Альбом 3 - 18. Сомнение.wav" WAVE INDEX 01 00:00:00 TRACK 19 AUDIO TITLE "Серенада Мефистофеля из оперы 'Фауст'" PERFORMER "Feodor Chaliapin" INDEX 00 04:32:74FILE "Feodor Chaliapin - Вдоль по Питерской. Альбом 3 - 19. Серенада Мефистофеля из оперы ''Фауст''.wav" WAVE INDEX 01 00:00:00



Показать сообщения:    

Текущее время: 10-Дек 13:52

Часовой пояс: UTC + 3


Вы не можете начинать темы
Вы не можете отвечать на сообщения
Вы не можете редактировать свои сообщения
Вы не можете удалять свои сообщения
Вы не можете голосовать в опросах
Вы не можете прикреплять файлы к сообщениям
Вы не можете скачивать файлы