(Opera) Героини Доницетти / Donizetti Heroines - Елена Мошук / Elena Mosuc, Иво Липанович / Ivo Lipanovic - 2013, APE (image+.cue) lossless


 

[Цитировать]

(Opera) Героини Доницетти / Donizetti Heroines - Елена Мошук / Elena Mosuc, Иво Липанович / Ivo Lipanovic - 2013, APE (image+.cue) lossless
Жанр: Opera
Страна-производитель диска: Switzerland
Год издания диска: 2013
Издатель (лейбл): Sony
Номер по каталогу: 88883788222
Дата записи: 2012-2013
Аудиокодек: APE
Тип рипа: image+.cue
Битрейт аудио: lossless
Продолжительность: 76:01
Источник: собственный рип
Наличие сканов в содержимом раздачи: нет

Исполнители

Elena MoşucCroatian Radio-Television ChoirNina Cossetto, chorus masterSymphony Orchestra of Croatian Radio-TelevisionIvo Lipanović, conductorIvana Garaj-Korpar (soprano, 6)Marco Mimica (bass, 4)Sascha Reckert (glassharmonica, 12-14)

Треклист

1. Lucrezia Borgia: Tranquillo ei posa2. Lucrezia Borgia: Com'e bello3. Lucrezia Borgia: Era desso il figlio mio4. Maria Stuarda: Quando di luce rosea5. Anna Bolena: Come, innocente giovane (Cavatina)6. Anna Bolena: Ma poche ormai rimangono... Non v'ha sguardo7. Anna Bolena: Al dolce guidami (Aria finale)8. Anna Bolena: Coppia iniqua9. Roberto Devereux: E Sara in questi orribili momenti10. Roberto Devereux: Vivi ingrato a lei d'accanto11. Roberto Devereux: Quel sangue versato12. Lucia di Lammermoor: Oh, giusto cielo!... Il dolce suono13. Lucia di Lammermoor: Ardon gl'incensi14. Lucia di Lammermoor: Spargi d'amaro pianto15. Norma: Casta diva16. Norma: Fine al rito17. Norma: Ah! Bello a me ritorna

Лог создания рипа

Exact Audio Copy V1.0 beta 3 from 29. August 2011
EAC extraction logfile from 29. January 2016, 17:11
Elena Mosuc - Donizetti Heroines
Used drive : TS8XDVDRTranscend Adapter: 2 ID: 1
Read mode : SecureUtilize accurate stream : YesDefeat audio cache : YesMake use of C2 pointers : No
Read offset correction : 6Overread into Lead-In and Lead-Out : NoFill up missing offset samples with silence : YesDelete leading and trailing silent blocks : NoNull samples used in CRC calculations : YesUsed interface : Native Win32 interface for Win NT & 2000
Used output format : Monkey's Audio Lossless EncoderSelected bitrate : Normal Lossless CompressionQuality : HighAdd ID3 tag : YesCommand line compressor : C:\Program Files (x86)\Monkey's Audio\MAC.exeAdditional command line options : %source% %dest% -c3000
TOC of the extracted CD
Track | Start | Length | Start sector | End sector --------------------------------------------------------- 1 | 0:00.00 | 3:13.01 | 0 | 14475 2 | 3:13.01 | 5:27.46 | 14476 | 39046 3 | 8:40.47 | 5:09.25 | 39047 | 62246 4 | 13:49.72 | 5:01.67 | 62247 | 84888 5 | 18:51.64 | 2:48.40 | 84889 | 97528 6 | 21:40.29 | 5:01.20 | 97529 | 120123 7 | 26:41.49 | 4:36.49 | 120124 | 140872 8 | 31:18.23 | 3:01.00 | 140873 | 154447 9 | 34:19.23 | 3:37.28 | 154448 | 170750 10 | 37:56.51 | 3:40.20 | 170751 | 187270 11 | 41:36.71 | 5:05.13 | 187271 | 210158 12 | 46:42.09 | 6:46.47 | 210159 | 240655 13 | 53:28.56 | 6:33.16 | 240656 | 270146 14 | 60:01.72 | 4:16.21 | 270147 | 289367 15 | 64:18.18 | 6:35.64 | 289368 | 319056 16 | 70:54.07 | 1:34.22 | 319057 | 326128 17 | 72:28.29 | 3:31.41 | 326129 | 341994
Range status and errors
Selected range
Filename I:\Recitals and Solo Albums\Elena Mosuc - Donizetti Heroines (2013)\CDImage.wav
Peak level 90.8 % Extraction speed 1.9 X Range quality 100.0 % Test CRC F9B8FA27 Copy CRC F9B8FA27 Copy OK
No errors occurred
AccurateRip summary
Track 1 not present in databaseTrack 2 not present in databaseTrack 3 not present in databaseTrack 4 not present in databaseTrack 5 not present in databaseTrack 6 not present in databaseTrack 7 not present in databaseTrack 8 not present in databaseTrack 9 not present in databaseTrack 10 not present in databaseTrack 11 not present in databaseTrack 12 not present in databaseTrack 13 not present in databaseTrack 14 not present in databaseTrack 15 not present in databaseTrack 16 not present in databaseTrack 17 not present in database
None of the tracks are present in the AccurateRip database
End of status report
==== Log checksum 94AC159F7B0BC66F12A43F112F905507CB307ADA80BF5B8BF16DA4518BFFC61D ====

Содержание индексной карты (.CUE)

REM DISCID D011CF11REM COMMENT "ExactAudioCopy v1.0b3"PERFORMER "Elena Mosuc"TITLE "Donizetti Heroines"FILE "CDImage.ape" WAVE TRACK 01 AUDIO TITLE "Lucrezia Borgia: Tranquillo ei posa" PERFORMER "Elena Mosuc" FLAGS DCP INDEX 01 00:00:00 TRACK 02 AUDIO TITLE "Lucrezia Borgia: Com'e bello" PERFORMER "Elena Mosuc" FLAGS DCP INDEX 01 03:13:01 TRACK 03 AUDIO TITLE "Lucrezia Borgia: Era desso il figlio mio" PERFORMER "Elena Mosuc" FLAGS DCP INDEX 01 08:40:47 TRACK 04 AUDIO TITLE "Maria Stuarda: Quando di luce rosea" PERFORMER "Elena Mosuc" FLAGS DCP INDEX 01 13:49:72 TRACK 05 AUDIO TITLE "Anna Bolena: Come, innocente giovane (Cavatina)" PERFORMER "Elena Mosuc" FLAGS DCP INDEX 01 18:51:64 TRACK 06 AUDIO TITLE "Anna Bolena: Ma poche ormai rimangono... Non v'ha sguardo" PERFORMER "Elena Mosuc" FLAGS DCP INDEX 01 21:40:29 TRACK 07 AUDIO TITLE "Anna Bolena: Al dolce guidami (Aria finale)" PERFORMER "Elena Mosuc" FLAGS DCP INDEX 01 26:41:49 TRACK 08 AUDIO TITLE "Anna Bolena: Coppia iniqua" PERFORMER "Elena Mosuc" FLAGS DCP INDEX 01 31:18:23 TRACK 09 AUDIO TITLE "Roberto Devereux: E sara in questi orribili momenti" PERFORMER "Elena Mosuc" FLAGS DCP INDEX 01 34:19:23 TRACK 10 AUDIO TITLE "Roberto Devereux: Vivi ingrato a lei d'accanto" PERFORMER "Elena Mosuc" FLAGS DCP INDEX 01 37:56:51 TRACK 11 AUDIO TITLE "Roberto Devereux: Quel sangue versato" PERFORMER "Elena Mosuc" FLAGS DCP INDEX 01 41:36:71 TRACK 12 AUDIO TITLE "Lucia di Lammermoor: Oh, giusto cielo!... Il dolce suono" PERFORMER "Elena Mosuc" FLAGS DCP INDEX 01 46:42:09 TRACK 13 AUDIO TITLE "Lucia di Lammermoor: Ardon gl'incensi" PERFORMER "Elena Mosuc" FLAGS DCP INDEX 01 53:28:56 TRACK 14 AUDIO TITLE "Lucia di Lammermoor: Spargi d'amaro pianto" PERFORMER "Elena Mosuc" FLAGS DCP INDEX 01 60:01:72 TRACK 15 AUDIO TITLE "Norma: Casta diva" PERFORMER "Elena Mosuc" FLAGS DCP INDEX 01 64:18:18 TRACK 16 AUDIO TITLE "Norma: Fine al rito" PERFORMER "Elena Mosuc" FLAGS DCP INDEX 01 70:54:07 TRACK 17 AUDIO TITLE "Norma: Ah! Bello a me ritorna" PERFORMER "Elena Mosuc" FLAGS DCP INDEX 01 72:28:29



Показать сообщения:    

Текущее время: 11-Дек 11:04

Часовой пояс: UTC + 3


Вы не можете начинать темы
Вы не можете отвечать на сообщения
Вы не можете редактировать свои сообщения
Вы не можете удалять свои сообщения
Вы не можете голосовать в опросах
Вы не можете прикреплять файлы к сообщениям
Вы не можете скачивать файлы