(Classical) A German Soul - Devotional Music from 17th-century Hamburg: Rosenmuller, Scheidemann, Praetorius, Bach, Tunder, Weckmann, Krieger - Laia Frigole, Ensemble Meridien, Juan de la Rubia - 2014, FLAC (image+.cue) lossless


 

[Цитировать]

A German Soul - Devotional Music from 17th-century Hamburg: Rosenmüller, Scheidemann, Praetorius, Bach, Tunder, Weckmann, Krieger - Laia Frigolé, Ensemble Méridien, Juan de la Rubia
Жанр: Classical
Год издания диска: 2014
Издатель (лейбл): Brilliant Classics
Номер по каталогу: 94717
Дата записи: 2012
Аудиокодек: FLAC
Тип рипа: image+.cue
Битрейт аудио: lossless
Продолжительность: 64:06
Источник: собственный рип
Наличие сканов в содержимом раздачи: да
Треклист:
Johann Rosenmüller (c.1619-1684)
[1] Sonata seconda à due
Heinrich Scheidemann (c.1595-1663)
[2] Praeambulum in D major, WV. 33
Johann Rosenmüller
[3] Cantata 'Eja torpentes animae surgite'
for soprano, 2 violins and b.c.
Johann Sebastian Bach (1685-1750)
[4]-[6] Trio Sonata in D minor, BWV 527
Michael Praetorius (1571-1621)
[7] Chorale 'Christ lag in Todesbanden'
Franz Tunder (1614-1667)
[8] Choral Fantasy on 'Christ lag in Todesbanden'
Matthias Weckmann (c.1616-1674)
[9] Fantasia ex D
Johann Philipp Krieger (1649-1725)
[10] Cantata 'Herr, auf dich trau ich'
for soprano, 2 violins and b.c.
Dietrich Buxtehude (c.1637-1707)
[11] Cantata 'Herr, wenn ich nur dich hab', BuxWV 38
for soprano, 2 violins and b.c.
Исполнители:
Laia Frigolé soprano
Ensemble Méridien
Juan de la Rubia
organ

Лог создания рипа

Exact Audio Copy V1.0 beta 3 from 29. August 2011
EAC extraction logfile from 1. May 2015, 20:01
Laia Frigole, Ensemble Meridien, Juan de la Rubia / A German Soul
Used drive : HL-DT-STDVDRAM GU70N Adapter: 0 ID: 0
Read mode : SecureUtilize accurate stream : YesDefeat audio cache : YesMake use of C2 pointers : No
Read offset correction : 48Overread into Lead-In and Lead-Out : NoFill up missing offset samples with silence : YesDelete leading and trailing silent blocks : NoNull samples used in CRC calculations : YesUsed interface : Native Win32 interface for Win NT & 2000
Used output format : User Defined EncoderSelected bitrate : 128 kBit/sQuality : HighAdd ID3 tag : NoCommand line compressor : C:\Program Files (x86)\Exact Audio Copy\Flac\flac.exeAdditional command line options : -V -8 -T "Date=%year%" -T "Genre=%genre%" %source%
TOC of the extracted CD
Track | Start | Length | Start sector | End sector --------------------------------------------------------- 1 | 0:00.00 | 8:16.55 | 0 | 37254 2 | 8:16.55 | 3:17.73 | 37255 | 52102 3 | 11:34.53 | 5:14.23 | 52103 | 75675 4 | 16:49.01 | 4:30.19 | 75676 | 95944 5 | 21:19.20 | 3:25.69 | 95945 | 111388 6 | 24:45.14 | 3:47.25 | 111389 | 128438 7 | 28:32.39 | 1:13.18 | 128439 | 133931 8 | 29:45.57 | 14:32.28 | 133932 | 199359 9 | 44:18.10 | 5:08.17 | 199360 | 222476 10 | 49:26.27 | 11:12.18 | 222477 | 272894 11 | 60:38.45 | 3:27.60 | 272895 | 288479
Range status and errors
Selected range
Filename C:\temp\A German Soul - Devotional Music from 17th-century Hamburg\A German Soul.wav
Peak level 95.2 % Extraction speed 5.3 X Range quality 99.9 % Test CRC BF825895 Copy CRC BF825895 Copy OK
No errors occurred
AccurateRip summary
Track 1 accurately ripped (confidence 1) [C7284E40] (AR v2)Track 2 accurately ripped (confidence 1) [77D43D7E] (AR v2)Track 3 accurately ripped (confidence 1) [EEB34F82] (AR v2)Track 4 accurately ripped (confidence 1) [D87C4103] (AR v2)Track 5 accurately ripped (confidence 1) [A9820AAE] (AR v2)Track 6 accurately ripped (confidence 1) [17D2D1F4] (AR v2)Track 7 accurately ripped (confidence 1) [2867C23E] (AR v2)Track 8 accurately ripped (confidence 1) [A04E656A] (AR v2)Track 9 accurately ripped (confidence 1) [12A87120] (AR v2)Track 10 accurately ripped (confidence 1) [543DFAE2] (AR v2)Track 11 accurately ripped (confidence 1) [2E875B0C] (AR v2)
All tracks accurately ripped
End of status report
==== Log checksum E688A7D3BADE738F401A92A7EA73ABCEE2F9D9B80910D70C0C30545CED887FF1 ====



Показать сообщения:    

Текущее время: 04-Дек 09:08

Часовой пояс: UTC + 3


Вы не можете начинать темы
Вы не можете отвечать на сообщения
Вы не можете редактировать свои сообщения
Вы не можете удалять свои сообщения
Вы не можете голосовать в опросах
Вы не можете прикреплять файлы к сообщениям
Вы не можете скачивать файлы