(Classical) Karl Jenkins - Imagined Oceans - 1998, FLAC (tracks+.cue), lossless


 

[Цитировать]

Karl Jenkins - Imagined Oceans
Жанр: Classical
Страна-производитель диска: Великобритания
Год издания диска: 1998
Издатель (лейбл): Sony Music
Номер по каталогу: SK 60668
Аудиокодек: FLAC
Тип рипа: tracks+.cue
Битрейт аудио: lossless
Продолжительность: 1:04:51
Источник (релизер): BlackAle (what)
Наличие сканов в содержимом раздачи: сетевые
Трэклист:
01. Mare Crisium (Introitus) (2:53)
02. Lacus Serenitatis (4:54)
03. Mare Vaporum (4:28)
04. Mare Australis (6:44)
05. Lacus Somniorum (2:40)
06. Lacus Pereverantiae (8:45)
07. Lacus Doloris (4:55)
08. Mare Undarum (4:58)
09. Palus Nebularum (3:11)
10. Sinus Iridium (2:15)
11. Mare Imbrium (4:48)
12. Lacus Temporis (5:14)
13. Lacus Lenitatis (3:26)
14. Mare Crisium (5:40)
Исполнители:
Performed by the Karl Jenkins Ensemble.
Produced by Karl Jenkins.
Recorded at CTS Studios, Wembley, England, on January 27-29, 1998.

Лог создания рипа

Exact Audio Copy V0.99 prebeta 5 from 4. May 2009
EAC extraction logfile from 21. October 2010, 16:02
Karl Jenkins / Imagined Oceans
Used drive : SONY DVD-ROM DDU1615 Adapter: 1 ID: 0
Read mode : SecureUtilize accurate stream : YesDefeat audio cache : YesMake use of C2 pointers : No
Read offset correction : 6Overread into Lead-In and Lead-Out : NoFill up missing offset samples with silence : YesDelete leading and trailing silent blocks : NoNull samples used in CRC calculations : YesUsed interface : Native Win32 interface for Win NT & 2000Gap handling : Appended to previous track
Used output format : User Defined EncoderSelected bitrate : 320 kBit/sQuality : HighAdd ID3 tag : NoCommand line compressor : C:\Program Files (x86)\Eac v0.99pb5\flac.exeAdditional command line options : -V -8 -T "artist=%a" -T "title=%t" -T "album=%g" -T "date=%y" -T "tracknumber=%n" -T "genre=%m" %s
TOC of the extracted CD
Track | Start | Length | Start sector | End sector --------------------------------------------------------- 1 | 0:00.00 | 2:52.40 | 0 | 12939 2 | 2:52.40 | 4:54.17 | 12940 | 35006 3 | 7:46.57 | 4:27.68 | 35007 | 55099 4 | 12:14.50 | 6:43.40 | 55100 | 85364 5 | 18:58.15 | 2:40.30 | 85365 | 97394 6 | 21:38.45 | 8:44.65 | 97395 | 136759 7 | 30:23.35 | 4:55.17 | 136760 | 158901 8 | 35:18.52 | 4:58.25 | 158902 | 181276 9 | 40:17.02 | 3:11.28 | 181277 | 195629 10 | 43:28.30 | 2:14.57 | 195630 | 205736 11 | 45:43.12 | 4:47.73 | 205737 | 227334 12 | 50:31.10 | 5:13.52 | 227335 | 250861 13 | 55:44.62 | 3:25.55 | 250862 | 266291 14 | 59:10.42 | 5:40.10 | 266292 | 291801
Track 1
Filename Y:\ur-\Karl Jenkins - 1998 - Imagined Oceans [FLAC]\01 - Mare Crisium Introitus.wav
Pre-gap length 0:00:02.00
Peak level 100.0 % Track quality 100.0 % Test CRC 1B515A1C Copy CRC 1B515A1C Accurately ripped (confidence 13) [5505F564] Copy OK
Track 2
Filename Y:\ur-\Karl Jenkins - 1998 - Imagined Oceans [FLAC]\02 - Lacus Serenitatis.wav
Peak level 90.3 % Track quality 100.0 % Test CRC D848F6BC Copy CRC D848F6BC Accurately ripped (confidence 13) [3320DD26] Copy OK
Track 3
Filename Y:\ur-\Karl Jenkins - 1998 - Imagined Oceans [FLAC]\03 - Mare Vaporum.wav
Pre-gap length 0:00:01.13
Peak level 71.7 % Track quality 100.0 % Test CRC 467D2F26 Copy CRC 467D2F26 Accurately ripped (confidence 13) [7AB1D8C6] Copy OK
Track 4
Filename Y:\ur-\Karl Jenkins - 1998 - Imagined Oceans [FLAC]\04 - Mare Australis.wav
Peak level 93.7 % Track quality 100.0 % Test CRC 787362DB Copy CRC 787362DB Accurately ripped (confidence 13) [3B77C3D8] Copy OK
Track 5
Filename Y:\ur-\Karl Jenkins - 1998 - Imagined Oceans [FLAC]\05 - Lacus Somniorum.wav
Pre-gap length 0:00:01.20
Peak level 65.7 % Track quality 99.9 % Test CRC 77AE8238 Copy CRC 77AE8238 Accurately ripped (confidence 13) [23830554] Copy OK
Track 6
Filename Y:\ur-\Karl Jenkins - 1998 - Imagined Oceans [FLAC]\06 - Lacus Pereverantiae.wav
Peak level 100.0 % Track quality 100.0 % Test CRC 7CC292B7 Copy CRC 7CC292B7 Accurately ripped (confidence 13) [FDB3D1F6] Copy OK
Track 7
Filename Y:\ur-\Karl Jenkins - 1998 - Imagined Oceans [FLAC]\07 - Lacus Doloris.wav
Pre-gap length 0:00:02.80
Peak level 100.0 % Track quality 100.0 % Test CRC 839426B9 Copy CRC 839426B9 Accurately ripped (confidence 13) [EA8A41D3] Copy OK
Track 8
Filename Y:\ur-\Karl Jenkins - 1998 - Imagined Oceans [FLAC]\08 - Mare Undarum.wav
Peak level 91.7 % Track quality 100.0 % Test CRC 2D6BD371 Copy CRC 2D6BD371 Accurately ripped (confidence 13) [F822BC10] Copy OK
Track 9
Filename Y:\ur-\Karl Jenkins - 1998 - Imagined Oceans [FLAC]\09 - Palus Nebularum.wav
Pre-gap length 0:00:03.09
Peak level 86.6 % Track quality 100.0 % Test CRC E419D893 Copy CRC E419D893 Accurately ripped (confidence 13) [B1F95494] Copy OK
Track 10
Filename Y:\ur-\Karl Jenkins - 1998 - Imagined Oceans [FLAC]\10 - Sinus Iridium.wav
Pre-gap length 0:00:01.60
Peak level 86.2 % Track quality 100.0 % Test CRC 205250F3 Copy CRC 205250F3 Accurately ripped (confidence 13) [242FE5DA] Copy OK
Track 11
Filename Y:\ur-\Karl Jenkins - 1998 - Imagined Oceans [FLAC]\11 - Mare Imbrium.wav
Peak level 89.3 % Track quality 100.0 % Test CRC 0CF64F5E Copy CRC 0CF64F5E Accurately ripped (confidence 12) [C6CEDCCF] Copy OK
Track 12
Filename Y:\ur-\Karl Jenkins - 1998 - Imagined Oceans [FLAC]\12 - Lacus Temporis.wav
Pre-gap length 0:00:01.44
Peak level 91.0 % Track quality 100.0 % Test CRC FFD65356 Copy CRC FFD65356 Accurately ripped (confidence 13) [04070B0A] Copy OK
Track 13
Filename Y:\ur-\Karl Jenkins - 1998 - Imagined Oceans [FLAC]\13 - Lacus Lenitatis.wav
Pre-gap length 0:00:02.06
Peak level 92.7 % Track quality 100.0 % Test CRC A24158EC Copy CRC A24158EC Accurately ripped (confidence 13) [4AFEC987] Copy OK
Track 14
Filename Y:\ur-\Karl Jenkins - 1998 - Imagined Oceans [FLAC]\14 - Mare Crisium.wav
Pre-gap length 0:00:01.16
Peak level 100.0 % Track quality 100.0 % Test CRC AC15287B Copy CRC AC15287B Accurately ripped (confidence 12) [FFBDACB7] Copy OK
All tracks accurately ripped
No errors occurred
End of status report

Содержание индексной карты (.CUE)

REM GENRE ClassicalREM DATE 1998REM DISCID A20F320EREM COMMENT "ExactAudioCopy v0.99pb5"PERFORMER "Karl Jenkins"TITLE "Imagined Oceans"FILE "01 - Mare Crisium (Introitus).wav" WAVE TRACK 01 AUDIO TITLE "Mare Crisium (Introitus)" PERFORMER "Karl Jenkins" INDEX 01 00:00:00FILE "02 - Lacus Serenitatis.wav" WAVE TRACK 02 AUDIO TITLE "Lacus Serenitatis" PERFORMER "Karl Jenkins" INDEX 01 00:00:00 TRACK 03 AUDIO TITLE "Mare Vaporum" PERFORMER "Karl Jenkins" INDEX 00 04:53:07FILE "03 - Mare Vaporum.wav" WAVE INDEX 01 00:00:00FILE "04 - Mare Australis.wav" WAVE TRACK 04 AUDIO TITLE "Mare Australis" PERFORMER "Karl Jenkins" INDEX 01 00:00:00 TRACK 05 AUDIO TITLE "Lacus Somniorum" PERFORMER "Karl Jenkins" INDEX 00 06:42:25FILE "05 - Lacus Somniorum.wav" WAVE INDEX 01 00:00:00FILE "06 - Lacus Pereverantiae.wav" WAVE TRACK 06 AUDIO TITLE "Lacus Pereverantiae" PERFORMER "Karl Jenkins" INDEX 01 00:00:00 TRACK 07 AUDIO TITLE "Lacus Doloris" PERFORMER "Karl Jenkins" INDEX 00 08:42:05FILE "07 - Lacus Doloris.wav" WAVE INDEX 01 00:00:00FILE "08 - Mare Undarum.wav" WAVE TRACK 08 AUDIO TITLE "Mare Undarum" PERFORMER "Karl Jenkins" INDEX 01 00:00:00 TRACK 09 AUDIO TITLE "Palus Nebularum" PERFORMER "Karl Jenkins" INDEX 00 04:55:18FILE "09 - Palus Nebularum.wav" WAVE INDEX 01 00:00:00 TRACK 10 AUDIO TITLE "Sinus Iridium" PERFORMER "Karl Jenkins" INDEX 00 03:09:58FILE "10 - Sinus Iridium.wav" WAVE INDEX 01 00:00:00FILE "11 - Mare Imbrium.wav" WAVE TRACK 11 AUDIO TITLE "Mare Imbrium" PERFORMER "Karl Jenkins" INDEX 01 00:00:00 TRACK 12 AUDIO TITLE "Lacus Temporis" PERFORMER "Karl Jenkins" INDEX 00 04:46:40FILE "12 - Lacus Temporis.wav" WAVE INDEX 01 00:00:00 TRACK 13 AUDIO TITLE "Lacus Lenitatis" PERFORMER "Karl Jenkins" INDEX 00 05:11:47FILE "13 - Lacus Lenitatis.wav" WAVE INDEX 01 00:00:00 TRACK 14 AUDIO TITLE "Mare Crisium" PERFORMER "Karl Jenkins" INDEX 00 03:24:43FILE "14 - Mare Crisium.wav" WAVE INDEX 01 00:00:00

Отчет CUETools

[CUETools log; Date: 26.01.2016 17:26:21; Version: 2.1.5][CTDB TOCID: BhndCivaA1XXsghlBnm5ew5t0A4-] found.Track | CTDB Status 1 | (15/21) Accurately ripped 2 | (15/21) Accurately ripped 3 | (15/21) Accurately ripped 4 | (15/21) Accurately ripped 5 | (15/21) Accurately ripped 6 | (15/21) Accurately ripped 7 | (15/21) Accurately ripped 8 | (15/21) Accurately ripped 9 | (15/21) Accurately ripped 10 | (15/21) Accurately ripped 11 | (15/21) Accurately ripped 12 | (15/21) Accurately ripped 13 | (15/21) Accurately ripped 14 | (15/21) Accurately ripped[AccurateRip ID: 00219354-01672295-a20f320e] found.Track [ CRC | V2 ] Status 01 [5505f564|a2024568] (14+10/34) Accurately ripped 02 [3320dd26|7c9b98dd] (14+10/34) Accurately ripped 03 [7ab1d8c6|9caaf11b] (14+10/34) Accurately ripped 04 [3b77c3d8|2e28d94b] (14+10/34) Accurately ripped 05 [23830554|4dbbe86f] (14+10/34) Accurately ripped 06 [fdb3d1f6|61804952] (14+10/34) Accurately ripped 07 [ea8a41d3|f7b3232b] (14+10/34) Accurately ripped 08 [f822bc10|dcf20dbd] (14+10/34) Accurately ripped 09 [b1f95494|4e19afc3] (14+10/34) Accurately ripped 10 [242fe5da|615c137a] (14+10/34) Accurately ripped 11 [c6cedccf|a335faff] (13+10/33) Accurately ripped 12 [04070b0a|7657bff8] (14+10/34) Accurately ripped 13 [4afec987|7c217913] (14+10/34) Accurately ripped 14 [ffbdacb7|bb0b6df8] (12+10/32) Accurately rippedOffsetted by -628: 01 [5a0ffa70] (02/34) Accurately ripped 02 [2fa30c3a] (02/34) Accurately ripped 03 [6d0f7aee] (02/34) Accurately ripped 04 [29505244] (02/34) Accurately ripped 05 [7ea75c24] (02/34) Accurately ripped 06 [7276b5ea] (02/34) Accurately ripped 07 [b5c735ef] (02/34) Accurately ripped 08 [b26ac0c4] (02/34) Accurately ripped 09 [35438500] (02/34) Accurately ripped 10 [859c50a2] (02/34) Accurately ripped 11 [967f53bf] (02/33) Accurately ripped 12 [e541c1c6] (02/34) Accurately ripped 13 [dc1f13f7] (02/34) Accurately ripped 14 [f9f9ed57] (02/32) Accurately ripped
Track Peak [ CRC32 ] [W/O NULL] [ LOG ] -- 100,0 [34D74633] [25666AB8] 01 100,0 [1B515A1C] [8C6BEF62] CRC32 02 90,3 [D848F6BC] [1EC1CED5] CRC32 03 71,7 [467D2F26] [E677E43F] CRC32 04 93,7 [787362DB] [A3E45AD7] CRC32 05 65,7 [77AE8238] [8B27BEE4] CRC32 06 100,0 [7CC292B7] [458DC78F] CRC32 07 100,0 [839426B9] [8C34ECD5] CRC32 08 91,7 [2D6BD371] [A8A73061] CRC32 09 86,6 [E419D893] [885FCDDB] CRC32 10 86,2 [205250F3] [64D24EF3] CRC32 11 89,3 [0CF64F5E] [DC011ED6] CRC32 12 91,0 [FFD65356] [96494D13] CRC32 13 92,7 [A24158EC] [04253750] CRC32 14 100,0 [AC15287B] [C5CCC2E6] CRC32

AllMusic Review by Brendan Swift

Karl Jenkins' successful combination of new age, jazz, and classical influences continues with Imagined Oceans, a musical interpretation of 13 of the Latin-named areas of the moon which were once believed to be vast stretches of water. The recorder of Pamela Thorby features heavily throughout, as does the imaginative use of voices; three female singers with a collected range of over three and a half octaves furthers the ethereal feel. There are as many highlights in this dense and complex collection as there are impenetrable sections that will require several listens. The pizzicati "Mare Vaporum (Sea of Vapours)," distinguished by the use of steam-like cymbals and a mesmeric flute part; "Mare Australis (Southern Sea)," a Mozart-influenced piece featuring Australian didgeridoo; and "Lacus Pereverantiae (Lake of Perseverance)," driven by a relentlessly repetitive (syncopated) rhythm, are among the best tracks. The musical metaphors are strewn throughout and ably continued with "Mare Imbrium (Sea of Showers)," punctuated by pizzicato string raindrops. Jenkins goal, "To create a world of aquatic fantasy," is ably achieved with this intricate and involved collection.



Показать сообщения:    

Текущее время: 10-Дек 19:38

Часовой пояс: UTC + 3


Вы не можете начинать темы
Вы не можете отвечать на сообщения
Вы не можете редактировать свои сообщения
Вы не можете удалять свои сообщения
Вы не можете голосовать в опросах
Вы не можете прикреплять файлы к сообщениям
Вы не можете скачивать файлы