(Classical) Karl Jenkins - Diamond Music (Palladio) {London Philharmonic Strings, Smith Quartet} - 1996, FLAC (tracks+.cue), lossless


 

[Цитировать]

Karl Jenkins - Diamond Music
Жанр: Classical
Страна-производитель диска: США
Год издания диска: 1996
Издатель (лейбл): Sony Music
Номер по каталогу: 62276
Аудиокодек: FLAC
Тип рипа: tracks+.cue
Битрейт аудио: lossless
Продолжительность: 52:05
Источник (релизер): analogdna (what)
Наличие сканов в содержимом раздачи: сетевые
Треклист:
Palladio
01. I. Allegretto (3:48)
02. II. Largo (5:39)
03. III. Vivace (7:02)
Adiemus Variations
04. I. (1:29)
05. II. (3:33)
06. III. (2:30)
07. IV. (3:36)
08. Passacaglia (4:57)
String Quartet No.2
09. I. The Fifth Season (3:44)
10. II. Tango (5:51)
11. III. Waltz (2:12)
12. IV. Romanze (2:59)
13. V. Bits (4:45)
Исполнители:
#1-3,8 performed by The London Philharmonic Strings (Karl Jenkins - conductor).
Konstantin Stoianov, Duncan Riddell, Robert St.John Wright, Dermot Crehan - violin soloists on #1-3.
#4-7,9-13 performed by The Smith Quartet (Nic Pendlebury - viola; Charles Mutter, Ian Humphries - violins; Deirdre Cooper - cello).
Recorded at Angel Recording Studios, Islington, London in 1995.
Produced by Karl Jenkins with Helen Hodkinson.

Лог создания рипа

Exact Audio Copy V0.99 prebeta 5 from 4. May 2009
EAC extraction logfile from 28. July 2010, 22:33
The London Philharmonic & The Smioth Quartet / Diamond Music
Used drive : HL-DT-STDVD-RAM GH10L Adapter: 0 ID: 1
Read mode : SecureUtilize accurate stream : YesDefeat audio cache : YesMake use of C2 pointers : No
Read offset correction : 667Overread into Lead-In and Lead-Out : NoFill up missing offset samples with silence : YesDelete leading and trailing silent blocks : NoNull samples used in CRC calculations : YesUsed interface : Native Win32 interface for Win NT & 2000Gap handling : Appended to previous track
Used output format : User Defined EncoderSelected bitrate : 1024 kBit/sQuality : HighAdd ID3 tag : NoCommand line compressor : C:\Program Files (x86)\Exact Audio Copy\FLAC\FLAC.EXEAdditional command line options : -V -8 -T "artist=%a" -T "title=%t" -T "album=%g" -T "date=%y" -T "tracknumber=%n" -T "genre=%m" %s
TOC of the extracted CD
Track | Start | Length | Start sector | End sector --------------------------------------------------------- 1 | 0:00.00 | 3:47.52 | 0 | 17076 2 | 3:47.52 | 5:38.50 | 17077 | 42476 3 | 9:26.27 | 7:01.53 | 42477 | 74104 4 | 16:28.05 | 1:28.72 | 74105 | 80776 5 | 17:57.02 | 3:32.58 | 80777 | 96734 6 | 21:29.60 | 2:29.42 | 96735 | 107951 7 | 23:59.27 | 3:36.05 | 107952 | 124156 8 | 27:35.32 | 4:57.13 | 124157 | 146444 9 | 32:32.45 | 3:43.64 | 146445 | 163233 10 | 36:16.34 | 5:50.73 | 163234 | 189556 11 | 42:07.32 | 2:11.40 | 189557 | 199421 12 | 44:18.72 | 2:59.35 | 199422 | 212881 13 | 47:18.32 | 4:44.53 | 212882 | 234234
Track 1
Filename C:\FLAC Rips\The London Philharmonic & The Smioth Quartet - 1996 - Diamond Music(FLAC)\01 - Jenkins- Palladio - 1. Allegretto.wav
Pre-gap length 0:00:02.00
Peak level 90.4 % Track quality 100.0 % Test CRC B53B97FE Copy CRC B53B97FE Accurately ripped (confidence 17) [95BBAE7C] Copy OK
Track 2
Filename C:\FLAC Rips\The London Philharmonic & The Smioth Quartet - 1996 - Diamond Music(FLAC)\02 - Jenkins- Palladio - 2. Adagio.wav
Peak level 56.0 % Track quality 100.0 % Test CRC 40C6EC3A Copy CRC 40C6EC3A Accurately ripped (confidence 16) [68C296B9] Copy OK
Track 3
Filename C:\FLAC Rips\The London Philharmonic & The Smioth Quartet - 1996 - Diamond Music(FLAC)\03 - Jenkins- Palladio - 3. Presto.wav
Peak level 97.0 % Track quality 99.9 % Test CRC 27C4ABA3 Copy CRC 27C4ABA3 Accurately ripped (confidence 16) [85520B9A] Copy OK
Track 4
Filename C:\FLAC Rips\The London Philharmonic & The Smioth Quartet - 1996 - Diamond Music(FLAC)\04 - Jenkins- Adiemus Variations - #1.wav
Pre-gap length 0:00:02.93
Peak level 36.7 % Track quality 100.0 % Test CRC 390F5FF5 Copy CRC 390F5FF5 Accurately ripped (confidence 15) [28FD87A0] Copy OK
Track 5
Filename C:\FLAC Rips\The London Philharmonic & The Smioth Quartet - 1996 - Diamond Music(FLAC)\05 - Jenkins- Adiemus Variations - #2.wav
Peak level 65.6 % Track quality 100.0 % Test CRC 0FC65608 Copy CRC 0FC65608 Accurately ripped (confidence 15) [FDDBD72E] Copy OK
Track 6
Filename C:\FLAC Rips\The London Philharmonic & The Smioth Quartet - 1996 - Diamond Music(FLAC)\06 - Jenkins- Adiemus Variations - #3.wav
Peak level 48.6 % Track quality 100.0 % Test CRC B593D28B Copy CRC B593D28B Accurately ripped (confidence 15) [60811F3A] Copy OK
Track 7
Filename C:\FLAC Rips\The London Philharmonic & The Smioth Quartet - 1996 - Diamond Music(FLAC)\07 - Jenkins- Adiemus Variations - #4.wav
Peak level 54.8 % Track quality 100.0 % Test CRC 5B3F7D69 Copy CRC 5B3F7D69 Accurately ripped (confidence 15) [96E24E06] Copy OK
Track 8
Filename C:\FLAC Rips\The London Philharmonic & The Smioth Quartet - 1996 - Diamond Music(FLAC)\08 - Jenkins- Passacaglia.wav
Pre-gap length 0:00:02.49
Peak level 97.3 % Track quality 99.9 % Test CRC 38A0FE6E Copy CRC 38A0FE6E Accurately ripped (confidence 15) [5568B1B2] Copy OK
Track 9
Filename C:\FLAC Rips\The London Philharmonic & The Smioth Quartet - 1996 - Diamond Music(FLAC)\09 - Jenkins- String Quartet #2 - The Fifth Season.wav
Pre-gap length 0:00:03.60
Peak level 39.7 % Track quality 100.0 % Test CRC A905D655 Copy CRC A905D655 Accurately ripped (confidence 15) [1E7AD333] Copy OK
Track 10
Filename C:\FLAC Rips\The London Philharmonic & The Smioth Quartet - 1996 - Diamond Music(FLAC)\10 - Jenkins- String Quartet #2 - Tango.wav
Peak level 45.3 % Track quality 99.9 % Test CRC F07ED24D Copy CRC F07ED24D Accurately ripped (confidence 15) [EC26D752] Copy OK
Track 11
Filename C:\FLAC Rips\The London Philharmonic & The Smioth Quartet - 1996 - Diamond Music(FLAC)\11 - Jenkins- String Quartet #2 - Waltz.wav
Peak level 42.1 % Track quality 100.0 % Test CRC 877CB130 Copy CRC 877CB130 Accurately ripped (confidence 15) [99A92ABA] Copy OK
Track 12
Filename C:\FLAC Rips\The London Philharmonic & The Smioth Quartet - 1996 - Diamond Music(FLAC)\12 - Jenkins- String Quartet #2 - Romanze.wav
Peak level 33.9 % Track quality 100.0 % Test CRC 49F54744 Copy CRC 49F54744 Accurately ripped (confidence 15) [CC69A446] Copy OK
Track 13
Filename C:\FLAC Rips\The London Philharmonic & The Smioth Quartet - 1996 - Diamond Music(FLAC)\13 - Jenkins- String Quartet #2 - Bits.wav
Peak level 81.2 % Track quality 100.0 % Test CRC DC46C897 Copy CRC DC46C897 Accurately ripped (confidence 15) [CC220314] Copy OK
All tracks accurately ripped
No errors occurred
End of status report

Содержание индексной карты (.CUE)

REM GENRE ClassicalREM DATE 1996REM DISCID C20C330DREM COMMENT "ExactAudioCopy v0.99pb5"PERFORMER "Karl Jenkins"TITLE "Diamond Music"FILE "01 - Palladio- I. Allegretto.wav" WAVE TRACK 01 AUDIO TITLE "Palladio: I. Allegretto" PERFORMER "Karl Jenkins" INDEX 01 00:00:00FILE "02 - Palladio- II. Largo.wav" WAVE TRACK 02 AUDIO TITLE "Palladio: II. Largo" PERFORMER "Karl Jenkins" INDEX 01 00:00:00FILE "03 - Palladio- III. Vivace.wav" WAVE TRACK 03 AUDIO TITLE "Palladio: III. Vivace" PERFORMER "Karl Jenkins" INDEX 01 00:00:00 TRACK 04 AUDIO TITLE "Adiemus Variations I" PERFORMER "Karl Jenkins" INDEX 00 06:58:58FILE "04 - Adiemus Variations I.wav" WAVE INDEX 01 00:00:00FILE "05 - Adiemus Variations II.wav" WAVE TRACK 05 AUDIO TITLE "Adiemus Variations II" PERFORMER "Karl Jenkins" INDEX 01 00:00:00FILE "06 - Adiemus Variations III.wav" WAVE TRACK 06 AUDIO TITLE "Adiemus Variations III" PERFORMER "Karl Jenkins" INDEX 01 00:00:00FILE "07 - Adiemus Variations IV.wav" WAVE TRACK 07 AUDIO TITLE "Adiemus Variations IV" PERFORMER "Karl Jenkins" INDEX 01 00:00:00 TRACK 08 AUDIO TITLE "Passacaglia" PERFORMER "Karl Jenkins" INDEX 00 03:33:43FILE "08 - Passacaglia.wav" WAVE INDEX 01 00:00:00 TRACK 09 AUDIO TITLE "String Quartet No.2: I. The Fifth Season" PERFORMER "Karl Jenkins" INDEX 00 04:53:43FILE "09 - String Quartet No.2- I. The Fifth Season.wav" WAVE INDEX 01 00:00:00FILE "10 - String Quartet No.2- II. Tango.wav" WAVE TRACK 10 AUDIO TITLE "String Quartet No.2: II. Tango" PERFORMER "Karl Jenkins" INDEX 01 00:00:00FILE "11 - String Quartet No.2- III. Waltz.wav" WAVE TRACK 11 AUDIO TITLE "String Quartet No.2: III. Waltz" PERFORMER "Karl Jenkins" INDEX 01 00:00:00FILE "12 - String Quartet No.2- IV. Romanze.wav" WAVE TRACK 12 AUDIO TITLE "String Quartet No.2: IV. Romanze" PERFORMER "Karl Jenkins" INDEX 01 00:00:00FILE "13 - String Quartet No.2- V. Bits.wav" WAVE TRACK 13 AUDIO TITLE "String Quartet No.2: V. Bits" PERFORMER "Karl Jenkins" INDEX 01 00:00:00

Отчет CUETools

[CUETools log; Date: 26.01.2016 16:58:43; Version: 2.1.5][CTDB TOCID: 51coV3UCYAd6zvveFP0qaRqI8ho-] found.Track | CTDB Status 1 | (22/22) Accurately ripped 2 | (21/22) Accurately ripped 3 | (22/22) Accurately ripped 4 | (22/22) Accurately ripped 5 | (22/22) Accurately ripped 6 | (22/22) Accurately ripped 7 | (22/22) Accurately ripped 8 | (22/22) Accurately ripped 9 | (22/22) Accurately ripped 10 | (22/22) Accurately ripped 11 | (22/22) Accurately ripped 12 | (22/22) Accurately ripped 13 | (22/22) Accurately ripped[AccurateRip ID: 0019c5df-00fe4f91-c20c330d] found.Track [ CRC | V2 ] Status 01 [95bbae7c|755273ad] (23+13/43) Accurately ripped 02 [68c296b9|79634246] (22+14/43) Accurately ripped 03 [85520b9a|fda6179e] (22+14/43) Accurately ripped 04 [28fd87a0|6057548f] (21+14/42) Accurately ripped 05 [fddbd72e|1f590209] (21+13/41) Accurately ripped 06 [60811f3a|92bff396] (21+13/41) Accurately ripped 07 [96e24e06|c9e6dc73] (21+14/42) Accurately ripped 08 [5568b1b2|991be9cf] (21+14/42) Accurately ripped 09 [1e7ad333|81abc0d4] (21+14/42) Accurately ripped 10 [ec26d752|8bf7a800] (21+14/42) Accurately ripped 11 [99a92aba|90be980c] (21+14/42) Accurately ripped 12 [cc69a446|82e49617] (21+13/41) Accurately ripped 13 [cc220314|2e5e9785] (21+14/42) Accurately rippedOffsetted by 283: 01 [496d59ec] (05/43) Accurately ripped 02 [b86505c1] (05/43) Accurately ripped 03 [807065c1] (05/43) Accurately ripped 04 [96a72be5] (05/42) Accurately ripped 05 [bae427e9] (05/41) Accurately ripped 06 [c3e9a34c] (05/41) Accurately ripped 07 [eeb0f406] (05/42) Accurately ripped 08 [3458add9] (05/42) Accurately ripped 09 [ceec07b0] (05/42) Accurately ripped 10 [03d90e0b] (05/42) Accurately ripped 11 [f3d9ddd3] (05/42) Accurately ripped 12 [78f17943] (05/41) Accurately ripped 13 [62ac892e] (05/42) Accurately ripped
Track Peak [ CRC32 ] [W/O NULL] [ LOG ] -- 97,3 [31F81DD4] [8D4E66C2] 01 90,4 [B53B97FE] [F6B90907] CRC32 02 56,0 [40C6EC3A] [5D8E0B24] CRC32 03 97,0 [27C4ABA3] [3C4C56DB] CRC32 04 36,7 [390F5FF5] [8EEA8CDA] CRC32 05 65,6 [0FC65608] [3E42139F] CRC32 06 48,6 [B593D28B] [E3422603] CRC32 07 54,8 [5B3F7D69] [ED9DECF5] CRC32 08 97,3 [38A0FE6E] [EAD8068C] CRC32 09 39,7 [A905D655] [909C4C58] CRC32 10 45,3 [F07ED24D] [9EFB41FB] CRC32 11 42,1 [877CB130] [7766B0E1] CRC32 12 33,9 [49F54744] [E3030FF6] CRC32 13 81,2 [DC46C897] [83E9D490] CRC32

Об альбоме (сборнике)

Diamond Music is a 1996 album by Welsh composer Karl Jenkins.
One of Jenkins's most recognised works is the first movement of the suite Palladio, inspired by 16th-century architect Andrea Palladio and in the style of a concerto grosso. This piece, in varying arrangements, has served as the music for DeBeers television advertisements since the company's "Shadows and Light" campaign in the mid-1990s. For this reason, the album is titled Diamond Music and the cover art features shadowed figures and photographs of diamonds much like the imagery used in the ad campaign.
Jenkins' compositions in this album encompass a broad polystylistic range, contrasting delicate pieces written for string quartet with the broad sound of a string orchestra. "String Quartet No. 2" includes movements in the Baroque style of Antonio Vivaldi ("The Fifth Season") as well as a tango, waltz, hoedown, and others. The four "Adiemus Variations" are reworkings of Jenkins' own piece "Adiemus" from Adiemus: Songs of Sanctuary. Additionally, the second movement of "Palladio" served as the theme for "Cantus Insolitus" also heard on Songs of Sanctuary.



Показать сообщения:    

Текущее время: 05-Дек 03:25

Часовой пояс: UTC + 3


Вы не можете начинать темы
Вы не можете отвечать на сообщения
Вы не можете редактировать свои сообщения
Вы не можете удалять свои сообщения
Вы не можете голосовать в опросах
Вы не можете прикреплять файлы к сообщениям
Вы не можете скачивать файлы