(Opera) Gioachino Rossini - Adelaide di Borgogna / Джоаккино Россини - Аделаида Бургундская (Alberto Zedda; Mariella Devia, Martine Dupuy, Armando Caforio, Elisabetta Tandura, Aldo Bertolo), 1984 - live from Martina Franca/ FLAC(tracks+.cue),lossless


 

[Цитировать]

Gioachino Rossini - Adelaide di Borgogna / Джоаккино Россини - Аделаида Бургундская
Жанр: Opera
Страна-производитель диска: Италия
Год издания диска: 1992
Издатель (лейбл): Fonit Cetra
Дата записи: 1984
Аудиокодек: FLAC
Тип рипа: tracks+.cue
Битрейт аудио: lossless
Продолжительность: 02:03:49
Источник: релизер (EL HUMILDE CAMPESINO)
Исполнители:
Adelaide - Mariella Devia,
Ottone - Martine Dupuy,
Berengario - Armando Caforio,
Eurice - Elisabetta Tandura,
Adalberto - Aldo Bertolo,
Iroldo - Michele Farruggia,
Ernesto - Giuseppe Fallisi.
Conductor - Alberto Zedda,
Orchestra of Martina Franca Festival,
New Cambridge Chorus.
Recorded live at Palazzo Ducale during the Martina Franca Opera Festival, August 4, 1984.

Лог создания рипаЛог создания рипа CD 1

Exact Audio Copy V1.0 beta 3 from 29. August 2011
EAC extraction logfile from 29. January 2016, 13:18
Alberto Zedda / Adelaide di Borgogna - CD1
Used drive : HL-DT-STDVDRAM GH24NSC0 Adapter: 3 ID: 0
Read mode : SecureUtilize accurate stream : YesDefeat audio cache : YesMake use of C2 pointers : No
Read offset correction : 6Overread into Lead-In and Lead-Out : NoFill up missing offset samples with silence : YesDelete leading and trailing silent blocks : NoNull samples used in CRC calculations : YesUsed interface : Native Win32 interface for Win NT & 2000Gap handling : Appended to previous track
Used output format : User Defined EncoderSelected bitrate : 768 kBit/sQuality : HighAdd ID3 tag : NoCommand line compressor : C:\Program Files (x86)\Exact Audio Copy\FLAC\FLAC.EXEAdditional command line options : -8 -V -T "ARTIST=%artist%" -T "TITLE=%title%" -T "ALBUM=%albumtitle%" -T "DATE=%year%" -T "TRACKNUMBER=%tracknr%" -T "GENRE=%genre%" -T "PERFORMER=%albuminterpret%" -T "COMPOSER=%composer%" %haslyrics%--tag-from-file=LYRICS="%lyricsfile%"%haslyrics% -T "ALBUMARTIST=%albumartist%" -T "DISCNUMBER=%cdnumber%" -T "TOTALDISCS=%totalcds%" -T "TOTALTRACKS=%numtracks%" -T "COMMENT=%comment%" %source% -o %dest%
TOC of the extracted CD
Track | Start | Length | Start sector | End sector --------------------------------------------------------- 1 | 0:00.13 | 5:33.27 | 13 | 25014 2 | 5:33.40 | 2:16.03 | 25015 | 35217 3 | 7:49.43 | 7:12.30 | 35218 | 67647 4 | 15:01.73 | 1:14.70 | 67648 | 73267 5 | 16:16.68 | 1:49.17 | 73268 | 81459 6 | 18:06.10 | 7:05.73 | 81460 | 113407 7 | 25:12.08 | 2:37.42 | 113408 | 125224 8 | 27:49.50 | 6:01.58 | 125225 | 152357 9 | 33:51.33 | 1:11.50 | 152358 | 157732 10 | 35:03.08 | 6:51.25 | 157733 | 188582 11 | 41:54.33 | 1:15.62 | 188583 | 194269 12 | 43:10.20 | 3:29.35 | 194270 | 209979 13 | 46:39.55 | 2:39.45 | 209980 | 221949 14 | 49:19.25 | 5:34.08 | 221950 | 247007 15 | 54:53.33 | 10:36.47 | 247008 | 294754 16 | 65:30.05 | 6:34.55 | 294755 | 324359 17 | 72:04.60 | 2:54.53 | 324360 | 337462
Track 1
Filename f:\Users\Guillermo\Desktop\EAC convertidos\01 Sinfonia.wav
Pre-gap length 0:00:02.17
Peak level 100.0 % Extraction speed 1.8 X Track quality 100.0 % Test CRC 83DDDA1C Copy CRC 83DDDA1C Copy OK
Track 2
Filename f:\Users\Guillermo\Desktop\EAC convertidos\02 Misera patria oppressa.wav
Peak level 63.3 % Extraction speed 1.3 X Track quality 99.8 % Test CRC C44937AB Copy CRC C44937AB Copy OK
Track 3
Filename f:\Users\Guillermo\Desktop\EAC convertidos\03 Lasciami, in tel padre.wav
Peak level 75.8 % Extraction speed 2.2 X Track quality 100.0 % Test CRC 4B66BFA7 Copy CRC 4B66BFA7 Copy OK
Track 4
Filename f:\Users\Guillermo\Desktop\EAC convertidos\04 Nostra è Italia.wav
Peak level 45.1 % Extraction speed 1.5 X Track quality 100.0 % Test CRC 55F1D9C0 Copy CRC 55F1D9C0 Copy OK
Track 5
Filename f:\Users\Guillermo\Desktop\EAC convertidos\05 Salve Italia, un di regnante.wav
Peak level 77.6 % Extraction speed 1.8 X Track quality 100.0 % Test CRC 425F4437 Copy CRC 425F4437 Copy OK
Track 6
Filename f:\Users\Guillermo\Desktop\EAC convertidos\06 Oh sacra alla virtù, sacra al valore.wav
Peak level 100.0 % Extraction speed 2.6 X Track quality 100.0 % Test CRC 6B9054F4 Copy CRC 6B9054F4 Copy OK
Track 7
Filename f:\Users\Guillermo\Desktop\EAC convertidos\07 Signor, al campo è giunto.wav
Peak level 56.6 % Extraction speed 2.3 X Track quality 100.0 % Test CRC 160A3DD8 Copy CRC 160A3DD8 Copy OK
Track 8
Filename f:\Users\Guillermo\Desktop\EAC convertidos\08 Vive Adelaide in pianto.wav
Peak level 85.7 % Extraction speed 2.8 X Track quality 100.0 % Test CRC 09E3D220 Copy CRC 09E3D220 Copy OK
Track 9
Filename f:\Users\Guillermo\Desktop\EAC convertidos\09 Cadde nel laccio Ottone.wav
Peak level 42.1 % Extraction speed 1.3 X Track quality 99.7 % Test CRC 43BFA19A Copy CRC 43BFA19A Copy OK
Track 10
Filename f:\Users\Guillermo\Desktop\EAC convertidos\10 Viva Ottone, il grande, il forte.wav
Peak level 85.1 % Extraction speed 3.1 X Track quality 100.0 % Test CRC D099FFCC Copy CRC D099FFCC Copy OK
Track 11
Filename f:\Users\Guillermo\Desktop\EAC convertidos\11 tacer! sempre tacer!.wav
Peak level 31.7 % Extraction speed 1.5 X Track quality 99.7 % Test CRC 176F957C Copy CRC 176F957C Copy OK
Track 12
Filename f:\Users\Guillermo\Desktop\EAC convertidos\12 Se protegge amica sorte.wav
Peak level 46.4 % Extraction speed 2.9 X Track quality 100.0 % Test CRC C66352C0 Copy CRC C66352C0 Copy OK
Track 13
Filename f:\Users\Guillermo\Desktop\EAC convertidos\13 O ritiro che soggiomo.wav
Peak level 40.1 % Extraction speed 2.8 X Track quality 100.0 % Test CRC 33418B2E Copy CRC 33418B2E Copy OK
Track 14
Filename f:\Users\Guillermo\Desktop\EAC convertidos\14 Occhi miei piangeste assai.wav
Peak level 47.5 % Extraction speed 3.3 X Track quality 100.0 % Test CRC 10FF3F46 Copy CRC 10FF3F46 Copy OK
Track 15
Filename f:\Users\Guillermo\Desktop\EAC convertidos\15 Pur mi lice una volta.wav
Peak level 79.3 % Extraction speed 3.8 X Track quality 100.0 % Test CRC 05C5E49B Copy CRC 05C5E49B Copy OK
Track 16
Filename f:\Users\Guillermo\Desktop\EAC convertidos\16 Schiudi le porte al tempio.wav
Peak level 81.9 % Extraction speed 3.8 X Track quality 100.0 % Test CRC 3BEF5F13 Copy CRC 3BEF5F13 Copy OK
Track 17
Filename f:\Users\Guillermo\Desktop\EAC convertidos\17 Quale improvovviso strepito!.wav
Peak level 87.0 % Extraction speed 3.3 X Track quality 100.0 % Test CRC 11B2A6B7 Copy CRC 11B2A6B7 Copy OK
No errors occurred
End of status report
==== Log checksum 451212172B99902F17EAC9E81B5BAFABB2B082DD2322E7AFE756A9E68B66BC58 ====

Лог создания рипа CD 2

Exact Audio Copy V1.0 beta 3 from 29. August 2011
EAC extraction logfile from 30. January 2016, 7:33
Alberto Zedda / Adelaide di Borgogna - CD2
Used drive : HL-DT-STDVDRAM GH24NSC0 Adapter: 3 ID: 0
Read mode : SecureUtilize accurate stream : YesDefeat audio cache : YesMake use of C2 pointers : No
Read offset correction : 6Overread into Lead-In and Lead-Out : NoFill up missing offset samples with silence : YesDelete leading and trailing silent blocks : NoNull samples used in CRC calculations : YesUsed interface : Native Win32 interface for Win NT & 2000Gap handling : Appended to previous track
Used output format : User Defined EncoderSelected bitrate : 768 kBit/sQuality : HighAdd ID3 tag : NoCommand line compressor : C:\Program Files (x86)\Exact Audio Copy\FLAC\FLAC.EXEAdditional command line options : -8 -V -T "ARTIST=%artist%" -T "TITLE=%title%" -T "ALBUM=%albumtitle%" -T "DATE=%year%" -T "TRACKNUMBER=%tracknr%" -T "GENRE=%genre%" -T "PERFORMER=%albuminterpret%" -T "COMPOSER=%composer%" %haslyrics%--tag-from-file=LYRICS="%lyricsfile%"%haslyrics% -T "ALBUMARTIST=%albumartist%" -T "DISCNUMBER=%cdnumber%" -T "TOTALDISCS=%totalcds%" -T "TOTALTRACKS=%numtracks%" -T "COMMENT=%comment%" %source% -o %dest%
TOC of the extracted CD
Track | Start | Length | Start sector | End sector --------------------------------------------------------- 1 | 0:00.33 | 1:46.15 | 33 | 7997 2 | 1:46.48 | 1:58.42 | 7998 | 16889 3 | 3:45.15 | 3:21.35 | 16890 | 31999 4 | 7:06.50 | 2:30.15 | 32000 | 43264 5 | 9:36.65 | 1:36.35 | 43265 | 50499 6 | 11:13.25 | 0:57.70 | 50500 | 54844 7 | 12:11.20 | 4:40.03 | 54845 | 75847 8 | 16:51.23 | 3:08.27 | 75848 | 89974 9 | 19:59.50 | 6:10.28 | 89975 | 117752 10 | 26:10.03 | 1:44.17 | 117753 | 125569 11 | 27:54.20 | 4:15.63 | 125570 | 144757 12 | 32:10.08 | 5:26.47 | 144758 | 169254 13 | 37:36.55 | 2:31.23 | 169255 | 180602 14 | 40:08.03 | 3:20.10 | 180603 | 195612 15 | 43:28.13 | 4:06.57 | 195613 | 214119
Track 1
Filename f:\Users\Guillermo\Desktop\EAC convertidos\01 Come l'aquila che piomba.wav
Pre-gap length 0:00:02.44
Peak level 77.8 % Extraction speed 1.1 X Track quality 100.0 % Test CRC 1B441396 Copy CRC 1B441396 Copy OK
Track 2
Filename f:\Users\Guillermo\Desktop\EAC convertidos\02 Vincemmo, o madre ... Torno, Adelaide, e torno.wav
Peak level 45.2 % Extraction speed 0.9 X Track quality 99.8 % Test CRC CCC4E5ED Copy CRC CCC4E5ED Copy OK
Track 3
Filename f:\Users\Guillermo\Desktop\EAC convertidos\03 Dell tua patria ai voti.wav
Peak level 74.6 % Extraction speed 1.5 X Track quality 100.0 % Test CRC 47528A50 Copy CRC 47528A50 Copy OK
Track 4
Filename f:\Users\Guillermo\Desktop\EAC convertidos\04 Ah! signor, perduti siamo.wav
Peak level 58.3 % Extraction speed 1.5 X Track quality 100.0 % Test CRC 0775B22E Copy CRC 0775B22E Copy OK
Track 5
Filename f:\Users\Guillermo\Desktop\EAC convertidos\05 Vederti in pianto e non poterti mai.wav
Peak level 42.2 % Extraction speed 1.4 X Track quality 100.0 % Test CRC A9E6F77C Copy CRC A9E6F77C Copy OK
Track 6
Filename f:\Users\Guillermo\Desktop\EAC convertidos\06 Berengario e nel periglio.wav
Peak level 30.9 % Extraction speed 1.1 X Track quality 100.0 % Test CRC D4438BE1 Copy CRC D4438BE1 Copy OK
Track 7
Filename f:\Users\Guillermo\Desktop\EAC convertidos\07 Grida, o natura, e desta.wav
Peak level 91.1 % Extraction speed 2.0 X Track quality 100.0 % Test CRC 41F06360 Copy CRC 41F06360 Copy OK
Track 8
Filename f:\Users\Guillermo\Desktop\EAC convertidos\08 Signor ... come imposenti.wav
Peak level 34.4 % Extraction speed 1.9 X Track quality 100.0 % Test CRC ADF098A0 Copy CRC ADF098A0 Copy OK
Track 9
Filename f:\Users\Guillermo\Desktop\EAC convertidos\09 Adelaide! oh ciel! che vedo.wav
Peak level 70.7 % Extraction speed 2.3 X Track quality 100.0 % Test CRC FDC6F4D8 Copy CRC FDC6F4D8 Copy OK
Track 10
Filename f:\Users\Guillermo\Desktop\EAC convertidos\10 Compagni, a voi fidata.wav
Peak level 36.4 % Extraction speed 1.8 X Track quality 100.0 % Test CRC 60CE3F30 Copy CRC 60CE3F30 Copy OK
Track 11
Filename f:\Users\Guillermo\Desktop\EAC convertidos\11 Ah! vanne Addio.wav
Peak level 57.8 % Extraction speed 2.4 X Track quality 100.0 % Test CRC 80F3D21C Copy CRC 80F3D21C Copy OK
Track 12
Filename f:\Users\Guillermo\Desktop\EAC convertidos\12 Se grate son le lagrime.wav
Peak level 69.1 % Extraction speed 2.3 X Track quality 99.9 % Test CRC CB36DC67 Copy CRC CB36DC67 Copy OK
Track 13
Filename f:\Users\Guillermo\Desktop\EAC convertidos\13 Serti intrecciar le vergini.wav
Peak level 95.5 % Extraction speed 2.3 X Track quality 100.0 % Test CRC 927F78E2 Copy CRC 927F78E2 Copy OK
Track 14
Filename f:\Users\Guillermo\Desktop\EAC convertidos\14 Questi, che a me presenta.wav
Peak level 86.3 % Extraction speed 2.1 X Track quality 99.8 % Test CRC 63860031 Copy CRC 63860031 Copy OK
Track 15
Filename f:\Users\Guillermo\Desktop\EAC convertidos\15 Al trono tuo primiero.wav
Peak level 95.5 % Extraction speed 2.8 X Track quality 100.0 % Test CRC 1E70C4B7 Copy CRC 1E70C4B7 Copy OK
No errors occurred
End of status report
==== Log checksum 33C47E7BB133F4FCC72DAF23484EA20EC13274DE913CAF23EFCD833CC91B5F4A ====

Содержание индексной карты (.CUE)Содержание индексной карты (.CUE) CD 1

REM GENRE OperaREM DATE 1984REM DISCID E8119311REM COMMENT "ExactAudioCopy v1.0b3"FILE "01 Sinfonia.wav" WAVE TRACK 01 AUDIO PREGAP 00:00:13 INDEX 01 00:00:00FILE "02 Misera patria oppressa.wav" WAVE TRACK 02 AUDIO INDEX 01 00:00:00FILE "03 Lasciami, in tel padre.wav" WAVE TRACK 03 AUDIO INDEX 01 00:00:00FILE "04 Nostra и Italia.wav" WAVE TRACK 04 AUDIO INDEX 01 00:00:00FILE "05 Salve Italia, un di regnante.wav" WAVE TRACK 05 AUDIO INDEX 01 00:00:00FILE "06 Oh sacra alla virtщ, sacra al valore.wav" WAVE TRACK 06 AUDIO INDEX 01 00:00:00FILE "07 Signor, al campo и giunto.wav" WAVE TRACK 07 AUDIO INDEX 01 00:00:00FILE "08 Vive Adelaide in pianto.wav" WAVE TRACK 08 AUDIO INDEX 01 00:00:00FILE "09 Cadde nel laccio Ottone.wav" WAVE TRACK 09 AUDIO INDEX 01 00:00:00FILE "10 Viva Ottone, il grande, il forte.wav" WAVE TRACK 10 AUDIO INDEX 01 00:00:00FILE "11 tacer! sempre tacer!.wav" WAVE TRACK 11 AUDIO INDEX 01 00:00:00FILE "12 Se protegge amica sorte.wav" WAVE TRACK 12 AUDIO INDEX 01 00:00:00FILE "13 O ritiro che soggiomo.wav" WAVE TRACK 13 AUDIO INDEX 01 00:00:00FILE "14 Occhi miei piangeste assai.wav" WAVE TRACK 14 AUDIO INDEX 01 00:00:00FILE "15 Pur mi lice una volta.wav" WAVE TRACK 15 AUDIO INDEX 01 00:00:00FILE "16 Schiudi le porte al tempio.wav" WAVE TRACK 16 AUDIO INDEX 01 00:00:00FILE "17 Quale improvovviso strepito!.wav" WAVE TRACK 17 AUDIO INDEX 01 00:00:00

Содержание индексной карты (.CUE) CD 2

REM GENRE OperaREM DATE 1984REM DISCID B30B260FREM COMMENT "ExactAudioCopy v1.0b3"FILE "01 Come l'aquila che piomba.wav" WAVE TRACK 01 AUDIO PREGAP 00:00:33 INDEX 01 00:00:00FILE "02 Vincemmo, o madre ... Torno, Adelaide, e torno.wav" WAVE TRACK 02 AUDIO INDEX 01 00:00:00FILE "03 Dell tua patria ai voti.wav" WAVE TRACK 03 AUDIO INDEX 01 00:00:00FILE "04 Ah! signor, perduti siamo.wav" WAVE TRACK 04 AUDIO INDEX 01 00:00:00FILE "05 Vederti in pianto e non poterti mai.wav" WAVE TRACK 05 AUDIO INDEX 01 00:00:00FILE "06 Berengario e nel periglio.wav" WAVE TRACK 06 AUDIO INDEX 01 00:00:00FILE "07 Grida, o natura, e desta.wav" WAVE TRACK 07 AUDIO INDEX 01 00:00:00FILE "08 Signor ... come imposenti.wav" WAVE TRACK 08 AUDIO INDEX 01 00:00:00FILE "09 Adelaide! oh ciel! che vedo.wav" WAVE TRACK 09 AUDIO INDEX 01 00:00:00FILE "10 Compagni, a voi fidata.wav" WAVE TRACK 10 AUDIO INDEX 01 00:00:00FILE "11 Ah! vanne Addio.wav" WAVE TRACK 11 AUDIO INDEX 01 00:00:00FILE "12 Se grate son le lagrime.wav" WAVE TRACK 12 AUDIO INDEX 01 00:00:00FILE "13 Serti intrecciar le vergini.wav" WAVE TRACK 13 AUDIO INDEX 01 00:00:00FILE "14 Questi, che a me presenta.wav" WAVE TRACK 14 AUDIO INDEX 01 00:00:00FILE "15 Al trono tuo primiero.wav" WAVE TRACK 15 AUDIO INDEX 01 00:00:00

Треклист

Disc 1:
Act I:
1. Sinfonia
2. Scene 1: Introduction: Misera patria oppressa
3. Scene 2: Introduction: Lasciami: in tel del padre
4. Scene 4: Recitative: Nostra e l'Italia
5. Salve Italia, un di regnante
6. Scene 6: Scene: Oh sacra all virtu, sacra al valore
7. Scene 7: Recitative and Cavatina: Signor, al campo e giunto
8. Scene 7: Duet: Vive Adelaide in pianto
9. Scene 9: Recitative and Duet: Cadde nel laccio Ottone
10. Scene 10: Cavatina: Viva Ottone, il grande, il forte
11. Scene 12: Recitative: Tacer! sempre tacer!
12 Se protegge amica sorte.flac 16.77 MB 17587994
13. Scene 13: O ritiro che soggiorno
14. Scene 13: Cavatina: Occhi miei, piangeste assai
15. Scene 14: Cavatina: Pur mi lice una volta
16. Scene 15: Finale: Schiudi le porte al tempio
17. Scene 16: Finale: Quale improvviso strepito!
Disc 2:
Act II:
01 Come l'aquila che piomba
02 Vincemmo, o madre ... Torno, Adelaide, e torno
03 Dell tua patria ai voti
04 Ah! signor, perduti siamo
05 Vederti in pianto e non poterti mai
06 Berengario e nel periglio
07 Grida, o natura, e desta
08 Signor ... come imposenti
09 Adelaide! oh ciel! che vedo
10 Compagni, a voi fidata
11 Ah! vanne Addio
12 Se grate son le lagrime
13 Serti intrecciar le vergini
14 Questi, che a me presenta
15 Al trono tuo primiero.



Показать сообщения:    

Текущее время: 10-Дек 00:23

Часовой пояс: UTC + 3


Вы не можете начинать темы
Вы не можете отвечать на сообщения
Вы не можете редактировать свои сообщения
Вы не можете удалять свои сообщения
Вы не можете голосовать в опросах
Вы не можете прикреплять файлы к сообщениям
Вы не можете скачивать файлы