(Classical) Gluck - Orfeo ed Euridice - Franco Fagioli, Malin Hartelius, Emmanuele de Negri, Accentus, Insula Orchestra, Laurence Equilbey - 2015, FLAC (image+.cue) lossless


 

[Цитировать]

Gluck - Orfeo ed Euridice - Franco Fagioli, Malin Hartelius, Emmanuele de Negri, Accentus, Insula Orchestra, Laurence Equilbey
Жанр: Classical
Страна-производитель диска: Germany
Год издания диска: 2015
Издатель (лейбл): Deutsche Grammophon
Дата записи: 2015
Аудиокодек: FLAC
Тип рипа: image+.cue
Битрейт аудио: lossless
Продолжительность: 2:31:58
Источник: собственный рип
Наличие сканов в содержимом раздачи: да
Треклист:
Christoph Willibald Gluck (1714–1787)

CD1: Orfeo - Highlights of the Versions for Vienna (1762) and Paris (1774)

[1] Overtura
[2] Act 1, Scene 1. Coro: 'Ah, se intorno a quest'urna funestra'
[3] Act 1, Scene 1. Ballo. Larghetto
[4] Act 1, Scene 1. Coro: 'Ah, se intorno a quest'urna funestra'
[5] Act 1, Scene 1. Aria: 'Chiamo il mio ben cosý'
[6] Act 1, Scene 2. Aria: 'Gli sguardi trattieni'
[7] Act 1, Scene 2. Aria: 'Addio, o miei sospiri!' *
[8] Act 2, Scene 1. Ballo. Maestoso / Coro: 'Chi mai dell'Erebo'
[9] Act 2, Scene 1. Ballo. Presto / Coro: 'Chi mai dell'Erebo'
[10] Act 2, Scene 1. Aria con coro: 'Deh, placatevi con me'
[11] Act 2, Scene 1. Coro: 'Misero giovine'
[12] Act 2, Scene 1. Aria: 'Mille pene, ombre moleste'
[13] Act 2, Scene 1. Coro: 'Ah, quale incognito'
[14] Act 2, Scene 1. Aria: 'Men tiranne, ah! voi sareste'
[15] Act 2, Scene 1. Coro: 'Ah, quale incognito'
[16] Act 2, Scene 1. Air des Furies *
[17] Act 2, Scene 2. Ballet des ombres heureuses *
[18] Act 2, Scene 2. Arioso: 'Che puro ciel! Che chiaro sol!'
[19] Act 2, Scene 2. Coro: 'Vieni a' regni del riposo'
[20] Act 3, Scene 1. Duetto: 'Vieni, appaga il tuo consorte!'
[21] Act 3, Scene 1. Aria: 'Che fiero momento'
[22] Act 3, Scene 1. Aria: 'Che far‗ senza Euridice?'
[23] Act 3, Scene 3. Ballo. Allegro
[24] Act 3, Scene 3. Coro: 'Trionfi Amore'
* Paris Version

CD2-CD3: Orfeo ed Euridice - Original Version (Vienna 1762)

CD2
[1] Overtura
First Act
[2]-[7] Scene I
[8]-[10] Scene II
Second Act
[11]-[18] Scene I
CD3
[1]-[6] Scene II
Third Act
[7]-[13] Scene I
[14] Scene II
[15]-[18] Scene III
Исполнители:
Orfeo Franco Fagioli
Euridice Malin Hartelius
Amore Emmanuele de Negri
Accentus
Insula Orchestra
Laurence Equilbey

Лог создания рипа: CD1

Exact Audio Copy V1.1 from 23. June 2015
EAC extraction logfile from 31. January 2016, 19:48
Insula Orchestra, Laurence Equilbey / Gluck - Orfeo ed Euridice - Highlights of the Versions for Vienna and Paris (1762 & 1774)
Used drive : HL-DT-STDVDRAM GU70N Adapter: 1 ID: 0
Read mode : SecureUtilize accurate stream : YesDefeat audio cache : YesMake use of C2 pointers : No
Read offset correction : 48Overread into Lead-In and Lead-Out : NoFill up missing offset samples with silence : YesDelete leading and trailing silent blocks : NoNull samples used in CRC calculations : YesUsed interface : Native Win32 interface for Win NT & 2000
Used output format : User Defined EncoderSelected bitrate : 128 kBit/sQuality : HighAdd ID3 tag : NoCommand line compressor : C:\Program Files (x86)\Exact Audio Copy\Flac\flac.exeAdditional command line options : -V -8 -T "Date=%year%" -T "Genre=%genre%" %source%
TOC of the extracted CD
Track | Start | Length | Start sector | End sector --------------------------------------------------------- 1 | 0:00.00 | 3:09.49 | 0 | 14223 2 | 3:09.49 | 3:10.61 | 14224 | 28534 3 | 6:20.35 | 1:45.34 | 28535 | 36443 4 | 8:05.69 | 2:22.48 | 36444 | 47141 5 | 10:28.42 | 4:13.16 | 47142 | 66132 6 | 14:41.58 | 2:39.06 | 66133 | 78063 7 | 17:20.64 | 4:39.51 | 78064 | 99039 8 | 22:00.40 | 1:42.58 | 99040 | 106747 9 | 23:43.23 | 1:38.62 | 106748 | 114159 10 | 25:22.10 | 3:00.40 | 114160 | 127699 11 | 28:22.50 | 0:50.05 | 127700 | 131454 12 | 29:12.55 | 0:57.67 | 131455 | 135796 13 | 30:10.47 | 0:36.07 | 135797 | 138503 14 | 30:46.54 | 0:42.27 | 138504 | 141680 15 | 31:29.06 | 1:04.42 | 141681 | 146522 16 | 32:33.48 | 3:59.51 | 146523 | 164498 17 | 36:33.24 | 6:12.22 | 164499 | 192420 18 | 42:45.46 | 5:13.30 | 192421 | 215925 19 | 47:59.01 | 1:50.58 | 215926 | 224233 20 | 49:49.59 | 3:26.36 | 224234 | 239719 21 | 53:16.20 | 3:21.08 | 239720 | 254802 22 | 56:37.28 | 4:27.02 | 254803 | 274829 23 | 61:04.30 | 2:42.54 | 274830 | 287033 24 | 63:47.09 | 2:50.03 | 287034 | 299786
Range status and errors
Selected range
Filename C:\temp\Gluck - Orfeo ed Euridice - Fagioli, Hartelius, Equilbey\CD1\Gluck - Orfeo ed Euridice - Highlights of the Versions for Vienna and Paris (1762 & 1774).wav
Peak level 97.8 % Extraction speed 2.2 X Range quality 100.0 % Test CRC B57F4F79 Copy CRC B57F4F79 Copy OK
No errors occurred
AccurateRip summary
Track 1 accurately ripped (confidence 1) [A563D6EF] (AR v2)Track 2 accurately ripped (confidence 1) [6EE9D348] (AR v2)Track 3 accurately ripped (confidence 1) [27DA174A] (AR v2)Track 4 accurately ripped (confidence 1) [1E8311EC] (AR v2)Track 5 accurately ripped (confidence 1) [D48CCE12] (AR v2)Track 6 accurately ripped (confidence 1) [F47F51D4] (AR v2)Track 7 accurately ripped (confidence 1) [AE1B2878] (AR v2)Track 8 accurately ripped (confidence 1) [01F53A45] (AR v2)Track 9 accurately ripped (confidence 1) [8DE7E985] (AR v2)Track 10 accurately ripped (confidence 1) [C6EBEC42] (AR v2)Track 11 accurately ripped (confidence 1) [3FD0C242] (AR v2)Track 12 accurately ripped (confidence 1) [09E798B6] (AR v2)Track 13 accurately ripped (confidence 1) [4AF56CF1] (AR v2)Track 14 accurately ripped (confidence 1) [F18B8FCA] (AR v2)Track 15 accurately ripped (confidence 1) [8F50AC9B] (AR v2)Track 16 accurately ripped (confidence 1) [C58DE6B3] (AR v2)Track 17 accurately ripped (confidence 1) [2683653A] (AR v2)Track 18 accurately ripped (confidence 1) [7D829733] (AR v2)Track 19 accurately ripped (confidence 1) [24FDCE14] (AR v2)Track 20 accurately ripped (confidence 1) [BA25D026] (AR v2)Track 21 accurately ripped (confidence 1) [C946CB56] (AR v2)Track 22 accurately ripped (confidence 1) [7B1B1BDB] (AR v2)Track 23 accurately ripped (confidence 1) [3E957E1B] (AR v2)Track 24 accurately ripped (confidence 1) [02A80BAC] (AR v2)
All tracks accurately ripped
End of status report
==== Log checksum 18AD4A06B4AD6B602C9308A8BEC36CFB0FCD8BF985E8C2E5FDDF93651B155E4B ====

Лог создания рипа: CD2

Exact Audio Copy V1.1 from 23. June 2015
EAC extraction logfile from 31. January 2016, 20:12
Insula Orchestra, Laurence Equilbey / Gluck - Orfeo ed Euridice - Act I & II (beginning)
Used drive : HL-DT-STDVDRAM GU70N Adapter: 1 ID: 0
Read mode : SecureUtilize accurate stream : YesDefeat audio cache : YesMake use of C2 pointers : No
Read offset correction : 48Overread into Lead-In and Lead-Out : NoFill up missing offset samples with silence : YesDelete leading and trailing silent blocks : NoNull samples used in CRC calculations : YesUsed interface : Native Win32 interface for Win NT & 2000
Used output format : User Defined EncoderSelected bitrate : 128 kBit/sQuality : HighAdd ID3 tag : NoCommand line compressor : C:\Program Files (x86)\Exact Audio Copy\Flac\flac.exeAdditional command line options : -V -8 -T "Date=%year%" -T "Genre=%genre%" %source%
TOC of the extracted CD
Track | Start | Length | Start sector | End sector --------------------------------------------------------- 1 | 0:00.00 | 3:09.42 | 0 | 14216 2 | 3:09.42 | 3:09.67 | 14217 | 28458 3 | 6:19.34 | 0:54.43 | 28459 | 32551 4 | 7:14.02 | 1:45.38 | 32552 | 40464 5 | 8:59.40 | 2:22.49 | 40465 | 51163 6 | 11:22.14 | 6:54.40 | 51164 | 82253 7 | 18:16.54 | 1:04.51 | 82254 | 87104 8 | 19:21.30 | 1:47.70 | 87105 | 95199 9 | 21:09.25 | 2:39.04 | 95200 | 107128 10 | 23:48.29 | 2:14.45 | 107129 | 117223 11 | 26:02.74 | 1:42.41 | 117224 | 124914 12 | 27:45.40 | 1:39.19 | 124915 | 132358 13 | 29:24.59 | 4:19.56 | 132359 | 151839 14 | 33:44.40 | 0:49.73 | 151840 | 155587 15 | 34:34.38 | 0:57.66 | 155588 | 159928 16 | 35:32.29 | 0:36.04 | 159929 | 162632 17 | 36:08.33 | 0:42.35 | 162633 | 165817 18 | 36:50.68 | 1:08.05 | 165818 | 170922
Range status and errors
Selected range
Filename C:\temp\Gluck - Orfeo ed Euridice - Fagioli, Hartelius, Equilbey\CD2\Gluck - Orfeo ed Euridice - Act I & II (beginning).wav
Peak level 97.7 % Extraction speed 4.1 X Range quality 100.0 % Test CRC BEF41497 Copy CRC BEF41497 Copy OK
No errors occurred
AccurateRip summary
Track 1 accurately ripped (confidence 1) [898F74F3] (AR v2)Track 2 accurately ripped (confidence 1) [C0344319] (AR v2)Track 3 accurately ripped (confidence 1) [12C66EDB] (AR v2)Track 4 accurately ripped (confidence 1) [6618E25A] (AR v2)Track 5 accurately ripped (confidence 1) [B2FBFAC5] (AR v2)Track 6 accurately ripped (confidence 1) [1B2F8A06] (AR v2)Track 7 accurately ripped (confidence 1) [2213D6A7] (AR v2)Track 8 accurately ripped (confidence 1) [257BD8B2] (AR v2)Track 9 accurately ripped (confidence 1) [9E516478] (AR v2)Track 10 accurately ripped (confidence 1) [0526C943] (AR v2)Track 11 accurately ripped (confidence 1) [9BE65E44] (AR v2)Track 12 accurately ripped (confidence 1) [D31C7E2F] (AR v2)Track 13 accurately ripped (confidence 1) [DCC7B292] (AR v2)Track 14 accurately ripped (confidence 1) [889371C0] (AR v2)Track 15 accurately ripped (confidence 1) [61A6E5E1] (AR v2)Track 16 accurately ripped (confidence 1) [57671900] (AR v2)Track 17 accurately ripped (confidence 1) [1A21AB51] (AR v2)Track 18 accurately ripped (confidence 1) [1ADBFF42] (AR v2)
All tracks accurately ripped
End of status report
==== Log checksum FAC3DA21AC22910A33A486D22DAE41A8153ED19E22DD6CC46257D8D3384A66E0 ====

Лог создания рипа: CD3

Exact Audio Copy V1.1 from 23. June 2015
EAC extraction logfile from 31. January 2016, 20:46
Insula Orchestra, Laurence Equilbey / Gluck - Orfeo ed Euridice - Act II (conclusion) & III
Used drive : HL-DT-STDVDRAM GU70N Adapter: 1 ID: 0
Read mode : SecureUtilize accurate stream : YesDefeat audio cache : YesMake use of C2 pointers : No
Read offset correction : 48Overread into Lead-In and Lead-Out : NoFill up missing offset samples with silence : YesDelete leading and trailing silent blocks : NoNull samples used in CRC calculations : YesUsed interface : Native Win32 interface for Win NT & 2000
Used output format : User Defined EncoderSelected bitrate : 128 kBit/sQuality : HighAdd ID3 tag : NoCommand line compressor : C:\Program Files (x86)\Exact Audio Copy\Flac\flac.exeAdditional command line options : -V -8 -T "Date=%year%" -T "Genre=%genre%" %source%
TOC of the extracted CD
Track | Start | Length | Start sector | End sector --------------------------------------------------------- 1 | 0:00.00 | 2:07.66 | 0 | 9590 2 | 2:07.66 | 5:13.46 | 9591 | 33111 3 | 7:21.37 | 1:49.65 | 33112 | 41351 4 | 9:11.27 | 2:42.54 | 41352 | 53555 5 | 11:54.06 | 0:42.73 | 53556 | 56778 6 | 12:37.04 | 1:52.04 | 56779 | 65182 7 | 14:29.08 | 5:50.01 | 65183 | 91433 8 | 20:19.09 | 3:26.24 | 91434 | 106907 9 | 23:45.33 | 1:54.05 | 106908 | 115462 10 | 25:39.38 | 3:19.62 | 115463 | 130449 11 | 28:59.25 | 3:50.46 | 130450 | 147745 12 | 32:49.71 | 4:26.02 | 147746 | 167697 13 | 37:15.73 | 1:17.73 | 167698 | 173545 14 | 38:33.71 | 1:46.24 | 173546 | 181519 15 | 40:20.20 | 0:22.05 | 181520 | 183174 16 | 40:42.25 | 1:01.34 | 183175 | 187783 17 | 41:43.59 | 2:42.11 | 187784 | 199944 18 | 44:25.70 | 2:50.27 | 199945 | 212721
Range status and errors
Selected range
Filename C:\temp\Gluck - Orfeo ed Euridice - Fagioli, Hartelius, Equilbey\CD3\Gluck - Orfeo ed Euridice - Act II (conclusion) & III.wav
Peak level 97.9 % Extraction speed 4.7 X Range quality 99.9 % Test CRC E50680A1 Copy CRC E50680A1 Copy OK
No errors occurred
AccurateRip summary
Track 1 accurately ripped (confidence 1) [8346CD86] (AR v2)Track 2 accurately ripped (confidence 1) [81D12466] (AR v2)Track 3 accurately ripped (confidence 1) [BA55227B] (AR v2)Track 4 accurately ripped (confidence 1) [4B4BCD4B] (AR v2)Track 5 accurately ripped (confidence 1) [256EB900] (AR v2)Track 6 accurately ripped (confidence 1) [353228BA] (AR v2)Track 7 accurately ripped (confidence 1) [73D16830] (AR v2)Track 8 accurately ripped (confidence 1) [49740C26] (AR v2)Track 9 accurately ripped (confidence 1) [A5817190] (AR v2)Track 10 accurately ripped (confidence 1) [76DFA1B1] (AR v2)Track 11 accurately ripped (confidence 1) [1DA749F7] (AR v2)Track 12 accurately ripped (confidence 1) [612C776C] (AR v2)Track 13 accurately ripped (confidence 1) [411B4B36] (AR v2)Track 14 accurately ripped (confidence 1) [E74EAA07] (AR v2)Track 15 accurately ripped (confidence 1) [BF45C01C] (AR v2)Track 16 accurately ripped (confidence 1) [D5D91CA4] (AR v2)Track 17 accurately ripped (confidence 1) [4B6A6EB3] (AR v2)Track 18 accurately ripped (confidence 1) [3321B47B] (AR v2)
All tracks accurately ripped
End of status report
==== Log checksum 1B0DF66A3F24659EA579003101C5E21FD91CA6261FA0EDEBF1D0511B7FA33877 ====



Показать сообщения:    

Текущее время: 07-Дек 19:29

Часовой пояс: UTC + 3


Вы не можете начинать темы
Вы не можете отвечать на сообщения
Вы не можете редактировать свои сообщения
Вы не можете удалять свои сообщения
Вы не можете голосовать в опросах
Вы не можете прикреплять файлы к сообщениям
Вы не можете скачивать файлы