(Opera) Gioachino Rossini - L'occasione fa il ladro /Джоаккино Россини-Случай делает вором или перепутанные чемоданы (Salvatore Accardo; Luciana Serra, Luciana D'Intino, Claudio Desderi, Raul Gimenez),1987-live from Pesaro/FLAC(tracks+.cue)


 

[Цитировать]

Gioachino Rossini - L'occasione fa il ladro / Джоаккино Россини - Случай делает вором или перепутанные чемоданы (Salvatore Accardo; Luciana Serra, Luciana D' Intino, Patrick Raftery, Raúl Giménez, Claudio Desderi, Ernesto Gavazzi)
Жанр: Opera
Страна-производитель диска: Италия
Год издания диска: 1994
Издатель (лейбл): Fonit Cetra
Дата записи: 1987
Аудиокодек: FLAC
Тип рипа: tracks+.cue
Битрейт аудио: lossless
Продолжительность: 02:04:18
Источник: релизер (EL HUMILDE CAMRESINO)
Исполнители:
Berenice - Luciana Serra,
Ernestina - Luciana D' Intino,
Don Parmenione - J Patrick Raftery,
Conte Alberto - Raúl Giménez,
Martino - Claudio Desderi,
Don Eusebio - Ernesto Gavazzi.
Conductor - Salvatore Accardo,
Orchestra Giovanile Italiana.
Recorded live during the Pesaro Opera Festival, August 1987.

Лог создания рипаЛог создания рипа CD 1

Exact Audio Copy V1.0 beta 3 from 29. August 2011
EAC extraction logfile from 28. January 2016, 19:42
Rossini Gioachino / L'occasione fa il ladro
Used drive : HL-DT-STDVDRAM GH24NSC0 Adapter: 3 ID: 0
Read mode : SecureUtilize accurate stream : YesDefeat audio cache : YesMake use of C2 pointers : No
Read offset correction : 6Overread into Lead-In and Lead-Out : NoFill up missing offset samples with silence : YesDelete leading and trailing silent blocks : NoNull samples used in CRC calculations : YesUsed interface : Native Win32 interface for Win NT & 2000Gap handling : Appended to previous track
Used output format : User Defined EncoderSelected bitrate : 768 kBit/sQuality : HighAdd ID3 tag : NoCommand line compressor : C:\Program Files (x86)\Exact Audio Copy\FLAC\FLAC.EXEAdditional command line options : -8 -V -T "ARTIST=%artist%" -T "TITLE=%title%" -T "ALBUM=%albumtitle%" -T "DATE=%year%" -T "TRACKNUMBER=%tracknr%" -T "GENRE=%genre%" -T "PERFORMER=%albuminterpret%" -T "COMPOSER=%composer%" %haslyrics%--tag-from-file=LYRICS="%lyricsfile%"%haslyrics% -T "ALBUMARTIST=%albumartist%" -T "DISCNUMBER=%cdnumber%" -T "TOTALDISCS=%totalcds%" -T "TOTALTRACKS=%numtracks%" -T "COMMENT=%comment%" %source% -o %dest%
TOC of the extracted CD
Track | Start | Length | Start sector | End sector --------------------------------------------------------- 1 | 0:00.00 | 4:21.06 | 0 | 19580 2 | 4:21.06 | 4:39.72 | 19581 | 40577 3 | 9:01.03 | 2:40.12 | 40578 | 52589 4 | 11:41.15 | 0:59.19 | 52590 | 57033 5 | 12:40.34 | 1:17.02 | 57034 | 62810 6 | 13:57.36 | 1:32.25 | 62811 | 69735 7 | 15:29.61 | 1:48.74 | 69736 | 77909 8 | 17:18.60 | 1:52.45 | 77910 | 86354 9 | 19:11.30 | 2:51.19 | 86355 | 99198 10 | 22:02.49 | 1:32.14 | 99199 | 106112 11 | 23:34.63 | 1:41.06 | 106113 | 113693 12 | 25:15.69 | 5:17.09 | 113694 | 137477 13 | 30:33.03 | 2:47.37 | 137478 | 150039 14 | 33:20.40 | 3:28.02 | 150040 | 165641 15 | 36:48.42 | 4:36.05 | 165642 | 186346 16 | 41:24.47 | 3:06.59 | 186347 | 200355 17 | 44:31.31 | 1:58.12 | 200356 | 209217 18 | 46:29.43 | 1:46.06 | 209218 | 217173
Track 1
Filename f:\Users\Guillermo\Desktop\EAC convertidos\01 Sinfonia.wav
Pre-gap length 0:00:02.00
Peak level 100.0 % Extraction speed 1.7 X Track quality 100.0 % Test CRC 23A46DC1 Copy CRC 23A46DC1 Copy OK
Track 2
Filename f:\Users\Guillermo\Desktop\EAC convertidos\02 Frema in cielo il membo irato.wav
Pre-gap length 0:00:02.00
Peak level 100.0 % Extraction speed 1.9 X Track quality 100.0 % Test CRC A18D49C1 Copy CRC A18D49C1 Copy OK
Track 3
Filename f:\Users\Guillermo\Desktop\EAC convertidos\03 Il tuo rigore insano.wav
Pre-gap length 0:00:02.00
Peak level 100.0 % Extraction speed 1.8 X Track quality 100.0 % Test CRC 939E000E Copy CRC 939E000E Copy OK
Track 4
Filename f:\Users\Guillermo\Desktop\EAC convertidos\04 Misericordia! Aiuto!.wav
Pre-gap length 0:00:02.00
Peak level 100.0 % Extraction speed 0.8 X Track quality 99.6 % Test CRC ACF7FBCE Copy CRC ACF7FBCE Copy OK
Track 5
Filename f:\Users\Guillermo\Desktop\EAC convertidos\05 Viva Bacco il Dio del vino.wav
Pre-gap length 0:00:02.00
Peak level 86.1 % Extraction speed 1.5 X Track quality 100.0 % Test CRC 88BB0658 Copy CRC 88BB0658 Copy OK
Track 6
Filename f:\Users\Guillermo\Desktop\EAC convertidos\06 Grato comforto e l'incontrar per viaggio.wav
Pre-gap length 0:00:02.00
Peak level 100.0 % Extraction speed 1.6 X Track quality 100.0 % Test CRC 29B966DA Copy CRC 29B966DA Copy OK
Track 7
Filename f:\Users\Guillermo\Desktop\EAC convertidos\07 E noi qui che facciam.wav
Pre-gap length 0:00:02.00
Peak level 100.0 % Extraction speed 1.3 X Track quality 99.8 % Test CRC E92BFD34 Copy CRC E92BFD34 Copy OK
Track 8
Filename f:\Users\Guillermo\Desktop\EAC convertidos\08 Che sorte che accidente.wav
Pre-gap length 0:00:02.00
Peak level 100.0 % Extraction speed 1.8 X Track quality 100.0 % Test CRC E53F4A31 Copy CRC E53F4A31 Copy OK
Track 9
Filename f:\Users\Guillermo\Desktop\EAC convertidos\09 D'arrogarsi un nome finto.wav
Pre-gap length 0:00:02.00
Peak level 100.0 % Extraction speed 2.1 X Track quality 100.0 % Test CRC FD4B1FBB Copy CRC FD4B1FBB Copy OK
Track 10
Filename f:\Users\Guillermo\Desktop\EAC convertidos\10 Finiscila- Non odo i tuoi consignli.wav
Pre-gap length 0:00:02.00
Peak level 99.6 % Extraction speed 1.8 X Track quality 100.0 % Test CRC 2EB4CB45 Copy CRC 2EB4CB45 Copy OK
Track 11
Filename f:\Users\Guillermo\Desktop\EAC convertidos\11 Non lo permetto.wav
Pre-gap length 0:00:02.00
Peak level 100.0 % Extraction speed 1.9 X Track quality 100.0 % Test CRC A7B5E2A9 Copy CRC A7B5E2A9 Copy OK
Track 12
Filename f:\Users\Guillermo\Desktop\EAC convertidos\12 Vicino e il momento.wav
Pre-gap length 0:00:02.00
Peak level 100.0 % Extraction speed 2.6 X Track quality 100.0 % Test CRC 3D53C998 Copy CRC 3D53C998 Copy OK
Track 13
Filename f:\Users\Guillermo\Desktop\EAC convertidos\13 Sposarsi ad un che non s'e mai veduto.wav
Pre-gap length 0:00:02.00
Peak level 100.0 % Extraction speed 2.4 X Track quality 100.0 % Test CRC 553AC82E Copy CRC 553AC82E Copy OK
Track 14
Filename f:\Users\Guillermo\Desktop\EAC convertidos\14 Quel gentil...quel vago oggette.wav
Pre-gap length 0:00:02.00
Peak level 100.0 % Extraction speed 2.6 X Track quality 100.0 % Test CRC F7B7CB85 Copy CRC F7B7CB85 Copy OK
Track 15
Filename f:\Users\Guillermo\Desktop\EAC convertidos\15 Se non m'inganna il core.wav
Pre-gap length 0:00:02.00
Peak level 100.0 % Extraction speed 2.8 X Track quality 100.0 % Test CRC 1116F17C Copy CRC 1116F17C Copy OK
Track 16
Filename f:\Users\Guillermo\Desktop\EAC convertidos\16 Dov'e questo sposo.wav
Pre-gap length 0:00:02.00
Peak level 100.0 % Extraction speed 2.7 X Track quality 100.0 % Test CRC 90285113 Copy CRC 90285113 Copy OK
Track 17
Filename f:\Users\Guillermo\Desktop\EAC convertidos\17 Orsu spiegatevi.wav
Pre-gap length 0:00:02.00
Peak level 100.0 % Extraction speed 2.4 X Track quality 100.0 % Test CRC 5B229198 Copy CRC 5B229198 Copy OK
Track 18
Filename f:\Users\Guillermo\Desktop\EAC convertidos\18 Di tanto equivoco do tal disordine.wav
Pre-gap length 0:00:02.00
Peak level 97.5 % Extraction speed 2.4 X Track quality 100.0 % Test CRC 95A4EDB5 Copy CRC 95A4EDB5 Copy OK
No errors occurred
End of status report
==== Log checksum 8D9B3D06CC80501B94445CF3AF37293C13AEEBD0185E4B05E315255A249B93BB ====

Лог создания рипа CD 2

Exact Audio Copy V1.0 beta 3 from 29. August 2011
EAC extraction logfile from 28. January 2016, 20:33
Gioachino Rossini / L'occasione fa il ladro 2
Used drive : HL-DT-STDVDRAM GH24NSC0 Adapter: 3 ID: 0
Read mode : SecureUtilize accurate stream : YesDefeat audio cache : YesMake use of C2 pointers : No
Read offset correction : 6Overread into Lead-In and Lead-Out : NoFill up missing offset samples with silence : YesDelete leading and trailing silent blocks : NoNull samples used in CRC calculations : YesUsed interface : Native Win32 interface for Win NT & 2000Gap handling : Appended to previous track
Used output format : User Defined EncoderSelected bitrate : 768 kBit/sQuality : HighAdd ID3 tag : NoCommand line compressor : C:\Program Files (x86)\Exact Audio Copy\FLAC\FLAC.EXEAdditional command line options : -8 -V -T "ARTIST=%artist%" -T "TITLE=%title%" -T "ALBUM=%albumtitle%" -T "DATE=%year%" -T "TRACKNUMBER=%tracknr%" -T "GENRE=%genre%" -T "PERFORMER=%albuminterpret%" -T "COMPOSER=%composer%" %haslyrics%--tag-from-file=LYRICS="%lyricsfile%"%haslyrics% -T "ALBUMARTIST=%albumartist%" -T "DISCNUMBER=%cdnumber%" -T "TOTALDISCS=%totalcds%" -T "TOTALTRACKS=%numtracks%" -T "COMMENT=%comment%" %source% -o %dest%
TOC of the extracted CD
Track | Start | Length | Start sector | End sector --------------------------------------------------------- 1 | 0:00.00 | 0:32.52 | 0 | 2451 2 | 0:32.52 | 1:28.34 | 2452 | 9085 3 | 2:01.11 | 5:14.57 | 9086 | 32692 4 | 7:15.68 | 2:29.37 | 32693 | 43904 5 | 9:45.30 | 5:07.72 | 43905 | 67001 6 | 14:53.27 | 2:29.27 | 67002 | 78203 7 | 17:22.54 | 0:41.65 | 78204 | 81343 8 | 18:04.44 | 3:31.09 | 81344 | 97177 9 | 21:35.53 | 2:14.45 | 97178 | 107272 10 | 23:50.23 | 2:15.52 | 107273 | 117449 11 | 26:06.00 | 6:21.19 | 117450 | 146043 12 | 32:27.19 | 1:33.52 | 146044 | 153070 13 | 34:00.71 | 2:04.52 | 153071 | 162422 14 | 36:05.48 | 1:52.45 | 162423 | 170867 15 | 37:58.18 | 4:47.17 | 170868 | 192409 16 | 42:45.35 | 1:05.73 | 192410 | 197357 17 | 43:51.33 | 2:59.71 | 197358 | 210853
Track 1
Filename f:\Users\Guillermo\Desktop\EAC convertidos\01 10-Voi chi siete.wav
Pre-gap length 0:00:02.00
Peak level 100.0 % Extraction speed 0.7 X Track quality 100.0 % Test CRC 5A14F8B2 Copy CRC 5A14F8B2 Copy OK
Track 2
Filename f:\Users\Guillermo\Desktop\EAC convertidos\02 Oh qual destino e il mio.wav
Pre-gap length 0:00:02.00
Peak level 100.0 % Extraction speed 1.2 X Track quality 100.0 % Test CRC 287B873A Copy CRC 287B873A Copy OK
Track 3
Filename f:\Users\Guillermo\Desktop\EAC convertidos\03 D ogni piu sacro impegno.wav
Pre-gap length 0:00:02.00
Peak level 100.0 % Extraction speed 1.8 X Track quality 100.0 % Test CRC 0F7FFC30 Copy CRC 0F7FFC30 Copy OK
Track 4
Filename f:\Users\Guillermo\Desktop\EAC convertidos\04 Quei fermi accenti quel sicuro.wav
Pre-gap length 0:00:02.00
Peak level 100.0 % Extraction speed 1.7 X Track quality 100.0 % Test CRC BC22DB5F Copy CRC BC22DB5F Copy OK
Track 5
Filename f:\Users\Guillermo\Desktop\EAC convertidos\05 Voi la sposa.wav
Pre-gap length 0:00:02.00
Peak level 100.0 % Extraction speed 2.1 X Track quality 100.0 % Test CRC CCBFA239 Copy CRC CCBFA239 Copy OK
Track 6
Filename f:\Users\Guillermo\Desktop\EAC convertidos\06 Ah uomo petulante.wav
Pre-gap length 0:00:02.00
Peak level 100.0 % Extraction speed 1.9 X Track quality 100.0 % Test CRC F76F2474 Copy CRC F76F2474 Copy OK
Track 7
Filename f:\Users\Guillermo\Desktop\EAC convertidos\07 13 Qui non c e scampo.wav
Pre-gap length 0:00:02.00
Peak level 100.0 % Extraction speed 1.1 X Track quality 100.0 % Test CRC B814C3DB Copy CRC B814C3DB Copy OK
Track 8
Filename f:\Users\Guillermo\Desktop\EAC convertidos\08 Il mio padrone e un uomo.wav
Pre-gap length 0:00:02.00
Peak level 100.0 % Extraction speed 2.2 X Track quality 100.0 % Test CRC 8CF8644E Copy CRC 8CF8644E Copy OK
Track 9
Filename f:\Users\Guillermo\Desktop\EAC convertidos\09 Se fosse vero.wav
Pre-gap length 0:00:02.00
Peak level 100.0 % Extraction speed 2.0 X Track quality 100.0 % Test CRC DAB329FF Copy CRC DAB329FF Copy OK
Track 10
Filename f:\Users\Guillermo\Desktop\EAC convertidos\10 Ma se incerti voi siete.wav
Pre-gap length 0:00:02.00
Peak level 100.0 % Extraction speed 2.1 X Track quality 100.0 % Test CRC AC1D2695 Copy CRC AC1D2695 Copy OK
Track 11
Filename f:\Users\Guillermo\Desktop\EAC convertidos\11 Se voi sposa esser bramate.wav
Pre-gap length 0:00:02.00
Peak level 100.0 % Extraction speed 2.7 X Track quality 100.0 % Test CRC BECCE9D2 Copy CRC BECCE9D2 Copy OK
Track 12
Filename f:\Users\Guillermo\Desktop\EAC convertidos\12 Io non soffro quest oltraggio.wav
Pre-gap length 0:00:02.00
Peak level 100.0 % Extraction speed 1.5 X Track quality 99.7 % Test CRC F15A3340 Copy CRC F15A3340 Copy OK
Track 13
Filename f:\Users\Guillermo\Desktop\EAC convertidos\13 Fermatevi.wav
Pre-gap length 0:00:02.00
Peak level 100.0 % Extraction speed 2.2 X Track quality 100.0 % Test CRC 00D56A9B Copy CRC 00D56A9B Copy OK
Track 14
Filename f:\Users\Guillermo\Desktop\EAC convertidos\14 Quello ch io fui ritorno.wav
Pre-gap length 0:00:02.00
Peak level 100.0 % Extraction speed 2.2 X Track quality 100.0 % Test CRC D2B3D299 Copy CRC D2B3D299 Copy OK
Track 15
Filename f:\Users\Guillermo\Desktop\EAC convertidos\15 17 Oh quanto son grate.wav
Pre-gap length 0:00:02.00
Peak level 100.0 % Extraction speed 2.9 X Track quality 100.0 % Test CRC 050B4917 Copy CRC 050B4917 Copy OK
Track 16
Filename f:\Users\Guillermo\Desktop\EAC convertidos\16 Miei signori, allegramente.wav
Pre-gap length 0:00:02.00
Peak level 100.0 % Extraction speed 1.3 X Track quality 99.6 % Test CRC 1C32EB32 Copy CRC 1C32EB32 Copy OK
Track 17
Filename f:\Users\Guillermo\Desktop\EAC convertidos\17 D ascoltar se favorite.wav
Pre-gap length 0:00:02.00
Peak level 100.0 % Extraction speed 2.7 X Track quality 100.0 % Test CRC E07EF144 Copy CRC E07EF144 Copy OK
No errors occurred
End of status report
==== Log checksum 018DE4D6C1FCB50DD18FF03D9C20BF729C309429334E8259C17FB795EF72BB5E ====

Содержание индексной карты (.CUE)Содержание индексной карты (.CUE) CD 1

REM DISCID D90B4F12REM COMMENT "ExactAudioCopy v1.0b3"FILE "01 Sinfonia.wav" WAVE TRACK 01 AUDIO INDEX 01 00:00:00 TRACK 02 AUDIO INDEX 00 04:19:06FILE "02 Frema in cielo il membo irato.wav" WAVE INDEX 01 00:00:00 TRACK 03 AUDIO INDEX 00 04:37:72FILE "03 Il tuo rigore insano.wav" WAVE INDEX 01 00:00:00 TRACK 04 AUDIO INDEX 00 02:38:12FILE "04 Misericordia! Aiuto!.wav" WAVE INDEX 01 00:00:00 TRACK 05 AUDIO INDEX 00 00:57:19FILE "05 Viva Bacco il Dio del vino.wav" WAVE INDEX 01 00:00:00 TRACK 06 AUDIO INDEX 00 01:15:02FILE "06 Grato comforto e l'incontrar per viaggio.wav" WAVE INDEX 01 00:00:00 TRACK 07 AUDIO INDEX 00 01:30:25FILE "07 E noi qui che facciam.wav" WAVE INDEX 01 00:00:00 TRACK 08 AUDIO INDEX 00 01:46:74FILE "08 Che sorte che accidente.wav" WAVE INDEX 01 00:00:00 TRACK 09 AUDIO INDEX 00 01:50:45FILE "09 D'arrogarsi un nome finto.wav" WAVE INDEX 01 00:00:00 TRACK 10 AUDIO INDEX 00 02:49:19FILE "10 Finiscila- Non odo i tuoi consignli.wav" WAVE INDEX 01 00:00:00 TRACK 11 AUDIO INDEX 00 01:30:14FILE "11 Non lo permetto.wav" WAVE INDEX 01 00:00:00 TRACK 12 AUDIO INDEX 00 01:39:06FILE "12 Vicino e il momento.wav" WAVE INDEX 01 00:00:00 TRACK 13 AUDIO INDEX 00 05:15:09FILE "13 Sposarsi ad un che non s'e mai veduto.wav" WAVE INDEX 01 00:00:00 TRACK 14 AUDIO INDEX 00 02:45:37FILE "14 Quel gentil...quel vago oggette.wav" WAVE INDEX 01 00:00:00 TRACK 15 AUDIO INDEX 00 03:26:02FILE "15 Se non m'inganna il core.wav" WAVE INDEX 01 00:00:00 TRACK 16 AUDIO INDEX 00 04:34:05FILE "16 Dov'e questo sposo.wav" WAVE INDEX 01 00:00:00 TRACK 17 AUDIO INDEX 00 03:04:59FILE "17 Orsu spiegatevi.wav" WAVE INDEX 01 00:00:00 TRACK 18 AUDIO INDEX 00 01:56:12FILE "18 Di tanto equivoco do tal disordine.wav" WAVE INDEX 01 00:00:00

Содержание индексной карты (.CUE) CD 2

REM DISCID ED0AFB11REM COMMENT "ExactAudioCopy v1.0b3"FILE "01 10-Voi chi siete.wav" WAVE TRACK 01 AUDIO INDEX 01 00:00:00 TRACK 02 AUDIO INDEX 00 00:30:52FILE "02 Oh qual destino e il mio.wav" WAVE INDEX 01 00:00:00 TRACK 03 AUDIO INDEX 00 01:26:34FILE "03 D ogni piu sacro impegno.wav" WAVE INDEX 01 00:00:00 TRACK 04 AUDIO INDEX 00 05:12:57FILE "04 Quei fermi accenti quel sicuro.wav" WAVE INDEX 01 00:00:00 TRACK 05 AUDIO INDEX 00 02:27:37FILE "05 Voi la sposa.wav" WAVE INDEX 01 00:00:00 TRACK 06 AUDIO INDEX 00 05:05:72FILE "06 Ah uomo petulante.wav" WAVE INDEX 01 00:00:00 TRACK 07 AUDIO INDEX 00 02:27:27FILE "07 13 Qui non c e scampo.wav" WAVE INDEX 01 00:00:00 TRACK 08 AUDIO INDEX 00 00:39:65FILE "08 Il mio padrone e un uomo.wav" WAVE INDEX 01 00:00:00 TRACK 09 AUDIO INDEX 00 03:29:09FILE "09 Se fosse vero.wav" WAVE INDEX 01 00:00:00 TRACK 10 AUDIO INDEX 00 02:12:45FILE "10 Ma se incerti voi siete.wav" WAVE INDEX 01 00:00:00 TRACK 11 AUDIO INDEX 00 02:13:52FILE "11 Se voi sposa esser bramate.wav" WAVE INDEX 01 00:00:00 TRACK 12 AUDIO INDEX 00 06:19:19FILE "12 Io non soffro quest oltraggio.wav" WAVE INDEX 01 00:00:00 TRACK 13 AUDIO INDEX 00 01:31:52FILE "13 Fermatevi.wav" WAVE INDEX 01 00:00:00 TRACK 14 AUDIO INDEX 00 02:02:52FILE "14 Quello ch io fui ritorno.wav" WAVE INDEX 01 00:00:00 TRACK 15 AUDIO INDEX 00 01:50:45FILE "15 17 Oh quanto son grate.wav" WAVE INDEX 01 00:00:00 TRACK 16 AUDIO INDEX 00 04:45:17FILE "16 Miei signori, allegramente.wav" WAVE INDEX 01 00:00:00 TRACK 17 AUDIO INDEX 00 01:03:73FILE "17 D ascoltar se favorite.wav" WAVE INDEX 01 00:00:00

Треклист

Disc 1:
01. Sinfonia
02 Frema in cielo il membo irato
03 Il tuo rigore insano
04 Misericordia! Aiuto!
05 Viva Bacco il Dio del vino
06 Grato comforto e l'incontrar per viaggio
07 E noi qui che facciam
08 Che sorte che accidente
09 D'arrogarsi un nome finto
10 Finiscila- Non odo i tuoi consignli
11 Non lo permetto
12 Vicino e il momento
13 Sposarsi ad un che non s'e mai veduto
14 Quel gentil...quel vago oggette
15 Se non m'inganna il core
16 Dov'e questo sposo
17 Orsu spiegatevi
18 Di tanto equivoco do tal disordine
Disc 2:
01 Voi chi siete
02 Oh qual destino e il mio
03 D ogni piu sacro impegno
04 Quei fermi accenti quel sicuro
05 Voi la sposa
06 Ah uomo petulante
07 Qui non c e scampo
08 Il mio padrone e un uomo
09 Se fosse vero
10 Ma se incerti voi siete
11 Se voi sposa esser bramate
12 Io non soffro quest oltraggio
13 Fermatevi
14 Quello ch io fui ritorno
15 Oh quanto son grate
16 Miei signori, allegramente
17 D ascoltar se favorite.



Показать сообщения:    

Текущее время: 10-Дек 00:23

Часовой пояс: UTC + 3


Вы не можете начинать темы
Вы не можете отвечать на сообщения
Вы не можете редактировать свои сообщения
Вы не можете удалять свои сообщения
Вы не можете голосовать в опросах
Вы не можете прикреплять файлы к сообщениям
Вы не можете скачивать файлы