(Opera) Giuseppe Verdi - Otello / Джузеппе Верди - Отелло (Alain Lombard; Giuseppe Giacomini, Margaret Price, Matteo Manuguerra), 1991 - live from Bordeaux / FLAC (tracks+.cue), lossless


 

[Цитировать]

Giuseppe Verdi - Otello / Джузеппе Верди - Отелло (Alain Lombard; Giuseppe Giacomini, Margaret Price, Matteo Manuguerra)
Жанр: Opera
Страна-производитель диска: Франция
Год издания диска: 1997
Издатель (лейбл): Forlane
Дата записи: 1991
Аудиокодек: FLAC
Тип рипа: tracks+.cue
Битрейт аудио: lossless
Продолжительность: 02:13:27
Источник: релизер (EL HUMILDE CAMPESINO)
Исполнители:
Otello - Giuseppe Giacomini,
Desdemona - Margaret Price,
Iago - Matteo Manuguerra,
Cassio - Dino Di Domenico,
Rodrigo - Alain Gabriel,
Lodovico - Luigi Roni,
Montano - Vincent Le Texier,
Emilia - Martine Mahé,
Un Araldo - Anton Kurnava.
Conductor - Alain Lombard,
Orchestra of National Bourdeaux Aquitaine,
Slovak Philharmonic Chorus,
Les Petits Chanteurs de Bordeaux.
Recorded live at Palais des sports, Bordeaux, France, March 1991, during the concert performance of the Opera.

Лог создания рипаЛог создания рипа CD 1

Exact Audio Copy V1.0 beta 3 from 29. August 2011
EAC extraction logfile from 3. February 2016, 21:51
Giuseppe Verdi / Otello - Bonisolli Price Manuguerra
Used drive : HL-DT-STDVDRAM GH24NSC0 Adapter: 3 ID: 0
Read mode : SecureUtilize accurate stream : YesDefeat audio cache : YesMake use of C2 pointers : No
Read offset correction : 6Overread into Lead-In and Lead-Out : NoFill up missing offset samples with silence : YesDelete leading and trailing silent blocks : NoNull samples used in CRC calculations : YesUsed interface : Native Win32 interface for Win NT & 2000Gap handling : Appended to previous track
Used output format : User Defined EncoderSelected bitrate : 768 kBit/sQuality : HighAdd ID3 tag : NoCommand line compressor : C:\Program Files (x86)\Exact Audio Copy\FLAC\FLAC.EXEAdditional command line options : -8 -V -T "ARTIST=%artist%" -T "TITLE=%title%" -T "ALBUM=%albumtitle%" -T "DATE=%year%" -T "TRACKNUMBER=%tracknr%" -T "GENRE=%genre%" -T "PERFORMER=%albuminterpret%" -T "COMPOSER=%composer%" %haslyrics%--tag-from-file=LYRICS="%lyricsfile%"%haslyrics% -T "ALBUMARTIST=%albumartist%" -T "DISCNUMBER=%cdnumber%" -T "TOTALDISCS=%totalcds%" -T "TOTALTRACKS=%numtracks%" -T "COMMENT=%comment%" %source% -o %dest%
TOC of the extracted CD
Track | Start | Length | Start sector | End sector --------------------------------------------------------- 1 | 0:00.33 | 4:04.30 | 33 | 18362 2 | 4:04.63 | 2:07.47 | 18363 | 27934 3 | 6:12.35 | 2:05.40 | 27935 | 37349 4 | 8:18.00 | 2:48.10 | 37350 | 49959 5 | 11:06.10 | 1:13.55 | 49960 | 55489 6 | 12:19.65 | 4:01.15 | 55490 | 73579 7 | 16:21.05 | 1:16.23 | 73580 | 79302 8 | 17:37.28 | 3:46.52 | 79303 | 96304 9 | 21:24.05 | 1:44.05 | 96305 | 104109 10 | 23:08.10 | 7:24.10 | 104110 | 137419 11 | 30:32.20 | 2:51.08 | 137420 | 150252 12 | 33:23.28 | 4:06.32 | 150253 | 168734 13 | 37:29.60 | 1:09.58 | 168735 | 173967 14 | 38:39.43 | 3:58.60 | 173968 | 191877 15 | 42:38.28 | 4:54.62 | 191878 | 213989 16 | 47:33.15 | 1:53.05 | 213990 | 222469 17 | 49:26.20 | 2:59.15 | 222470 | 235909 18 | 52:25.35 | 1:36.28 | 235910 | 243137 19 | 54:01.63 | 3:14.07 | 243138 | 257694 20 | 57:15.70 | 3:48.40 | 257695 | 274834 21 | 61:04.35 | 3:06.30 | 274835 | 288814
Track 1
Filename f:\Users\Guillermo\Desktop\EAC convertidos\01 Una vela! Una vela!.wav
Pre-gap length 0:00:02.44
Peak level 99.6 % Extraction speed 1.2 X Track quality 99.9 % Test CRC 18B10F61 Copy CRC 18B10F61 Copy OK
Track 2
Filename f:\Users\Guillermo\Desktop\EAC convertidos\02 Esultate!.wav
Peak level 65.1 % Extraction speed 1.4 X Track quality 100.0 % Test CRC FB2B9059 Copy CRC FB2B9059 Copy OK
Track 3
Filename f:\Users\Guillermo\Desktop\EAC convertidos\03 Roderigo, ebben, che pensi.wav
Peak level 44.2 % Extraction speed 1.1 X Track quality 99.8 % Test CRC 10FA25CF Copy CRC 10FA25CF Copy OK
Track 4
Filename f:\Users\Guillermo\Desktop\EAC convertidos\04 Fuoco di gioia.wav
Peak level 84.1 % Extraction speed 1.6 X Track quality 100.0 % Test CRC AE2D2EF5 Copy CRC AE2D2EF5 Copy OK
Track 5
Filename f:\Users\Guillermo\Desktop\EAC convertidos\05 Roderigo, beviam!.wav
Peak level 62.0 % Extraction speed 1.3 X Track quality 100.0 % Test CRC 1A401EC6 Copy CRC 1A401EC6 Copy OK
Track 6
Filename f:\Users\Guillermo\Desktop\EAC convertidos\06 Qua, ragazzi, del vino!.wav
Peak level 96.6 % Extraction speed 1.9 X Track quality 100.0 % Test CRC 09F243A7 Copy CRC 09F243A7 Copy OK
Track 7
Filename f:\Users\Guillermo\Desktop\EAC convertidos\07 Capitano! V'attende la fazione ai baluardi.wav
Peak level 100.0 % Extraction speed 1.4 X Track quality 100.0 % Test CRC 56D44E8E Copy CRC 56D44E8E Copy OK
Track 8
Filename f:\Users\Guillermo\Desktop\EAC convertidos\08 Abbasso le spade!.wav
Peak level 98.2 % Extraction speed 2.0 X Track quality 100.0 % Test CRC 6C607AFE Copy CRC 6C607AFE Copy OK
Track 9
Filename f:\Users\Guillermo\Desktop\EAC convertidos\09 Già nella notte densa.wav
Peak level 40.7 % Extraction speed 1.7 X Track quality 100.0 % Test CRC B8D483B6 Copy CRC B8D483B6 Copy OK
Track 10
Filename f:\Users\Guillermo\Desktop\EAC convertidos\10 Quando narravi l'esule tua vita.wav
Peak level 83.2 % Extraction speed 2.5 X Track quality 100.0 % Test CRC B23F9DA0 Copy CRC B23F9DA0 Copy OK
Track 11
Filename f:\Users\Guillermo\Desktop\EAC convertidos\11 Non ti crucciar.wav
Pre-gap length 0:00:37.42
Peak level 54.5 % Extraction speed 1.8 X Track quality 99.8 % Test CRC FB636861 Copy CRC FB636861 Copy OK
Track 12
Filename f:\Users\Guillermo\Desktop\EAC convertidos\12 Credo in un Dio crudel.wav
Peak level 99.6 % Extraction speed 2.5 X Track quality 100.0 % Test CRC 207BCA38 Copy CRC 207BCA38 Copy OK
Track 13
Filename f:\Users\Guillermo\Desktop\EAC convertidos\13 Ecco, Cassio, a te....wav
Peak level 55.1 % Extraction speed 1.2 X Track quality 99.6 % Test CRC B213DE64 Copy CRC B213DE64 Copy OK
Track 14
Filename f:\Users\Guillermo\Desktop\EAC convertidos\14 Ciò m'accora.wav
Peak level 96.9 % Extraction speed 2.6 X Track quality 100.0 % Test CRC A4DCCF95 Copy CRC A4DCCF95 Copy OK
Track 15
Filename f:\Users\Guillermo\Desktop\EAC convertidos\15 Dove guardi splendono raggi, avvampan cuori.wav
Peak level 45.1 % Extraction speed 2.8 X Track quality 100.0 % Test CRC 1AD43412 Copy CRC 1AD43412 Copy OK
Track 16
Filename f:\Users\Guillermo\Desktop\EAC convertidos\16 D'un uom che geme sotto il tuo disdegno.wav
Peak level 76.3 % Extraction speed 2.3 X Track quality 100.0 % Test CRC A02CDF30 Copy CRC A02CDF30 Copy OK
Track 17
Filename f:\Users\Guillermo\Desktop\EAC convertidos\17 Se inconscia contro te, sposo.wav
Peak level 70.7 % Extraction speed 2.6 X Track quality 100.0 % Test CRC 063B698E Copy CRC 063B698E Copy OK
Track 18
Filename f:\Users\Guillermo\Desktop\EAC convertidos\18 Desdemona rea!.wav
Peak level 99.6 % Extraction speed 2.2 X Track quality 100.0 % Test CRC 6E7BC6C5 Copy CRC 6E7BC6C5 Copy OK
Track 19
Filename f:\Users\Guillermo\Desktop\EAC convertidos\19 Ed ora! Ed ora! Ora e per sempre addio sante memori.wav
Peak level 99.0 % Extraction speed 2.8 X Track quality 100.0 % Test CRC F3305584 Copy CRC F3305584 Copy OK
Track 20
Filename f:\Users\Guillermo\Desktop\EAC convertidos\20 Era la notte, Cassio dormia.wav
Peak level 100.0 % Extraction speed 3.0 X Track quality 100.0 % Test CRC 250E3F25 Copy CRC 250E3F25 Copy OK
Track 21
Filename f:\Users\Guillermo\Desktop\EAC convertidos\21 Si pel ciel marmoreo giuro.wav
Peak level 100.0 % Extraction speed 2.4 X Track quality 99.8 % Test CRC C1D89CEE Copy CRC C1D89CEE Copy OK
No errors occurred
End of status report
==== Log checksum 62F63EED855F5584398937A7001F1273159E42BE6D32A6CE99C62CCB63498F57 ====

Лог создания рипа CD 2

Exact Audio Copy V1.0 beta 3 from 29. August 2011
EAC extraction logfile from 4. February 2016, 8:37
Giacomini,Price,Manuguerra,Roni / Otello - Acts III & IV-Giacomini
Used drive : HL-DT-STDVDRAM GH24NSC0 Adapter: 3 ID: 0
Read mode : SecureUtilize accurate stream : YesDefeat audio cache : YesMake use of C2 pointers : No
Read offset correction : 6Overread into Lead-In and Lead-Out : NoFill up missing offset samples with silence : YesDelete leading and trailing silent blocks : NoNull samples used in CRC calculations : YesUsed interface : Native Win32 interface for Win NT & 2000Gap handling : Appended to previous track
Used output format : User Defined EncoderSelected bitrate : 768 kBit/sQuality : HighAdd ID3 tag : NoCommand line compressor : C:\Program Files (x86)\Exact Audio Copy\FLAC\FLAC.EXEAdditional command line options : -8 -V -T "ARTIST=%artist%" -T "TITLE=%title%" -T "ALBUM=%albumtitle%" -T "DATE=%year%" -T "TRACKNUMBER=%tracknr%" -T "GENRE=%genre%" -T "PERFORMER=%albuminterpret%" -T "COMPOSER=%composer%" %haslyrics%--tag-from-file=LYRICS="%lyricsfile%"%haslyrics% -T "ALBUMARTIST=%albumartist%" -T "DISCNUMBER=%cdnumber%" -T "TOTALDISCS=%totalcds%" -T "TOTALTRACKS=%numtracks%" -T "COMMENT=%comment%" %source% -o %dest%
TOC of the extracted CD
Track | Start | Length | Start sector | End sector --------------------------------------------------------- 1 | 0:00.33 | 2:36.15 | 33 | 11747 2 | 2:36.48 | 9:38.35 | 11748 | 55132 3 | 12:15.08 | 3:59.37 | 55133 | 73094 4 | 16:14.45 | 3:27.60 | 73095 | 88679 5 | 19:42.30 | 1:45.73 | 88680 | 96627 6 | 21:28.28 | 1:11.72 | 96628 | 102024 7 | 22:40.25 | 3:25.48 | 102025 | 117447 8 | 26:05.73 | 1:42.17 | 117448 | 125114 9 | 27:48.15 | 6:57.40 | 125115 | 156429 10 | 34:45.55 | 1:55.43 | 156430 | 165097 11 | 36:41.23 | 3:28.50 | 165098 | 180747 12 | 40:09.73 | 7:51.05 | 180748 | 216077 13 | 48:01.03 | 7:11.62 | 216078 | 248464 14 | 55:12.65 | 3:50.55 | 248465 | 265769 15 | 59:03.45 | 2:01.20 | 265770 | 274864 16 | 61:04.65 | 1:17.73 | 274865 | 280712 17 | 62:22.63 | 5:49.47 | 280713 | 306934
Track 1
Filename f:\Users\Guillermo\Desktop\EAC convertidos\01 1. Act III, Scene One- La vedetta del porto ha segnalato.wav
Pre-gap length 0:00:02.44
Peak level 47.1 % Extraction speed 1.4 X Track quality 100.0 % Test CRC F6E776CB Copy CRC F6E776CB Copy OK
Track 2
Filename f:\Users\Guillermo\Desktop\EAC convertidos\02 2. Act III, Scene 2- Dio to giocondi...Esterrefatta fisso lo sguardo tuo tremendo.wav
Peak level 100.0 % Extraction speed 2.0 X Track quality 100.0 % Test CRC E8BEFF79 Copy CRC E8BEFF79 Copy OK
Track 3
Filename f:\Users\Guillermo\Desktop\EAC convertidos\03 3. Act III, Scene 3 & Scene 4- Dio! mio potevi scagliar...Ah! dannazione!.wav
Peak level 89.7 % Extraction speed 2.0 X Track quality 100.0 % Test CRC 92CF95A3 Copy CRC 92CF95A3 Copy OK
Track 4
Filename f:\Users\Guillermo\Desktop\EAC convertidos\04 4. Act III, Scene 5- Vieni, l'aula e deserta.wav
Peak level 82.8 % Extraction speed 2.0 X Track quality 100.0 % Test CRC 2D2EDCB7 Copy CRC 2D2EDCB7 Copy OK
Track 5
Filename f:\Users\Guillermo\Desktop\EAC convertidos\05 5. Act III, Scene 5- Questa e un ragna.wav
Peak level 99.6 % Extraction speed 1.8 X Track quality 100.0 % Test CRC B0375E3A Copy CRC B0375E3A Copy OK
Track 6
Filename f:\Users\Guillermo\Desktop\EAC convertidos\06 6. Act III, Scene 6- Come la uccidero.wav
Peak level 55.9 % Extraction speed 1.5 X Track quality 100.0 % Test CRC EA2E7CBA Copy CRC EA2E7CBA Copy OK
Track 7
Filename f:\Users\Guillermo\Desktop\EAC convertidos\07 7. Act III, Scene 7- Viva! Evviva! Viva il Leon di San Marco.wav
Peak level 100.0 % Extraction speed 2.2 X Track quality 100.0 % Test CRC 0468F62A Copy CRC 0468F62A Copy OK
Track 8
Filename f:\Users\Guillermo\Desktop\EAC convertidos\08 8. Act III, Scene 8- Messeri! Il Doge....wav
Peak level 94.8 % Extraction speed 1.9 X Track quality 100.0 % Test CRC 0515E642 Copy CRC 0515E642 Copy OK
Track 9
Filename f:\Users\Guillermo\Desktop\EAC convertidos\09 9. Act III, Scene 8- A terra... si... nel livido fango....wav
Peak level 99.6 % Extraction speed 2.7 X Track quality 100.0 % Test CRC 6222D837 Copy CRC 6222D837 Copy OK
Track 10
Filename f:\Users\Guillermo\Desktop\EAC convertidos\10 10. Act III, Scene 9- Fuggirmi io sol non so... Sangue!.wav
Peak level 98.7 % Extraction speed 2.1 X Track quality 100.0 % Test CRC 1E65D2EA Copy CRC 1E65D2EA Copy OK
Track 11
Filename f:\Users\Guillermo\Desktop\EAC convertidos\11 11. Act Four, Scene 1- Era piu calmo.wav
Peak level 45.6 % Extraction speed 2.6 X Track quality 100.0 % Test CRC 8C89A239 Copy CRC 8C89A239 Copy OK
Track 12
Filename f:\Users\Guillermo\Desktop\EAC convertidos\12 12. Act Four, Scene 1- Mia madre avea una povera ancella... Piangea cantando.wav
Peak level 69.2 % Extraction speed 3.1 X Track quality 100.0 % Test CRC 7FCE239D Copy CRC 7FCE239D Copy OK
Track 13
Filename f:\Users\Guillermo\Desktop\EAC convertidos\13 13. Act Four, Scene 2- Ave Maria....wav
Peak level 54.1 % Extraction speed 3.2 X Track quality 100.0 % Test CRC D31774EB Copy CRC D31774EB Copy OK
Track 14
Filename f:\Users\Guillermo\Desktop\EAC convertidos\14 14. Act Four, Scene 3- Chi e la Otello.wav
Peak level 89.1 % Extraction speed 3.0 X Track quality 100.0 % Test CRC D19C15C5 Copy CRC D19C15C5 Copy OK
Track 15
Filename f:\Users\Guillermo\Desktop\EAC convertidos\15 15. Act Four, Scene 3- Aprite! Aprite!.wav
Peak level 98.0 % Extraction speed 2.7 X Track quality 100.0 % Test CRC C663C506 Copy CRC C663C506 Copy OK
Track 16
Filename f:\Users\Guillermo\Desktop\EAC convertidos\16 16. Act Four, Scene 4- Quai grida! Orrore! Orror!.wav
Peak level 92.8 % Extraction speed 2.2 X Track quality 100.0 % Test CRC F5C0279A Copy CRC F5C0279A Copy OK
Track 17
Filename f:\Users\Guillermo\Desktop\EAC convertidos\17 17. Act Four, Scene 4- Niun mi tema.wav
Peak level 96.9 % Extraction speed 3.4 X Track quality 100.0 % Test CRC C1531B43 Copy CRC C1531B43 Copy OK
No errors occurred
End of status report
==== Log checksum 438374738CF5871AECCBDC78A6473510A245249AAFCC66EE28A44D3602B59D8E ====

Содержание индексной карты (.CUE)Содержание индексной карты (.CUE) CD 1

REM GENRE OperaREM DISCID 270F0A15REM COMMENT "ExactAudioCopy v1.0b3"FILE "01 Una vela! Una vela!.wav" WAVE TRACK 01 AUDIO PREGAP 00:00:33 INDEX 01 00:00:00FILE "02 Esultate!.wav" WAVE TRACK 02 AUDIO INDEX 01 00:00:00FILE "03 Roderigo, ebben, che pensi.wav" WAVE TRACK 03 AUDIO INDEX 01 00:00:00FILE "04 Fuoco di gioia.wav" WAVE TRACK 04 AUDIO INDEX 01 00:00:00FILE "05 Roderigo, beviam!.wav" WAVE TRACK 05 AUDIO INDEX 01 00:00:00FILE "06 Qua, ragazzi, del vino!.wav" WAVE TRACK 06 AUDIO INDEX 01 00:00:00FILE "07 Capitano! V'attende la fazione ai baluardi.wav" WAVE TRACK 07 AUDIO INDEX 01 00:00:00FILE "08 Abbasso le spade!.wav" WAVE TRACK 08 AUDIO INDEX 01 00:00:00FILE "09 Giа nella notte densa.wav" WAVE TRACK 09 AUDIO INDEX 01 00:00:00FILE "10 Quando narravi l'esule tua vita.wav" WAVE TRACK 10 AUDIO INDEX 01 00:00:00 TRACK 11 AUDIO INDEX 00 06:46:53FILE "11 Non ti crucciar.wav" WAVE INDEX 01 00:00:00FILE "12 Credo in un Dio crudel.wav" WAVE TRACK 12 AUDIO INDEX 01 00:00:00FILE "13 Ecco, Cassio, a te....wav" WAVE TRACK 13 AUDIO INDEX 01 00:00:00FILE "14 Ciт m'accora.wav" WAVE TRACK 14 AUDIO INDEX 01 00:00:00FILE "15 Dove guardi splendono raggi, avvampan cuori.wav" WAVE TRACK 15 AUDIO INDEX 01 00:00:00FILE "16 D'un uom che geme sotto il tuo disdegno.wav" WAVE TRACK 16 AUDIO INDEX 01 00:00:00FILE "17 Se inconscia contro te, sposo.wav" WAVE TRACK 17 AUDIO INDEX 01 00:00:00FILE "18 Desdemona rea!.wav" WAVE TRACK 18 AUDIO INDEX 01 00:00:00FILE "19 Ed ora! Ed ora! Ora e per sempre addio sante memori.wav" WAVE TRACK 19 AUDIO INDEX 01 00:00:00FILE "20 Era la notte, Cassio dormia.wav" WAVE TRACK 20 AUDIO INDEX 01 00:00:00FILE "21 Si pel ciel marmoreo giuro.wav" WAVE TRACK 21 AUDIO INDEX 01 00:00:00

Содержание индексной карты (.CUE) CD 2

REM GENRE OperaREM DATE 1991REM DISCID F60FFC11REM COMMENT "ExactAudioCopy v1.0b3"FILE "01 1. Act III, Scene One- La vedetta del porto ha segnalato.wav" WAVE TRACK 01 AUDIO PREGAP 00:00:33 INDEX 01 00:00:00FILE "02 2. Act III, Scene 2- Dio to giocondi...Esterrefatta fisso lo sguardo tuo tremendo.wav" WAVE TRACK 02 AUDIO INDEX 01 00:00:00FILE "03 3. Act III, Scene 3 & Scene 4- Dio! mio potevi scagliar...Ah! dannazione!.wav" WAVE TRACK 03 AUDIO INDEX 01 00:00:00FILE "04 4. Act III, Scene 5- Vieni, l'aula e deserta.wav" WAVE TRACK 04 AUDIO INDEX 01 00:00:00FILE "05 5. Act III, Scene 5- Questa e un ragna.wav" WAVE TRACK 05 AUDIO INDEX 01 00:00:00FILE "06 6. Act III, Scene 6- Come la uccidero.wav" WAVE TRACK 06 AUDIO INDEX 01 00:00:00FILE "07 7. Act III, Scene 7- Viva! Evviva! Viva il Leon di San Marco.wav" WAVE TRACK 07 AUDIO INDEX 01 00:00:00FILE "08 8. Act III, Scene 8- Messeri! Il Doge....wav" WAVE TRACK 08 AUDIO INDEX 01 00:00:00FILE "09 9. Act III, Scene 8- A terra... si... nel livido fango....wav" WAVE TRACK 09 AUDIO INDEX 01 00:00:00FILE "10 10. Act III, Scene 9- Fuggirmi io sol non so... Sangue!.wav" WAVE TRACK 10 AUDIO INDEX 01 00:00:00FILE "11 11. Act Four, Scene 1- Era piu calmo.wav" WAVE TRACK 11 AUDIO INDEX 01 00:00:00FILE "12 12. Act Four, Scene 1- Mia madre avea una povera ancella... Piangea cantando.wav" WAVE TRACK 12 AUDIO INDEX 01 00:00:00FILE "13 13. Act Four, Scene 2- Ave Maria....wav" WAVE TRACK 13 AUDIO INDEX 01 00:00:00FILE "14 14. Act Four, Scene 3- Chi e la Otello.wav" WAVE TRACK 14 AUDIO INDEX 01 00:00:00FILE "15 15. Act Four, Scene 3- Aprite! Aprite!.wav" WAVE TRACK 15 AUDIO INDEX 01 00:00:00FILE "16 16. Act Four, Scene 4- Quai grida! Orrore! Orror!.wav" WAVE TRACK 16 AUDIO INDEX 01 00:00:00FILE "17 17. Act Four, Scene 4- Niun mi tema.wav" WAVE TRACK 17 AUDIO INDEX 01 00:00:00

Треклист

Disc 1:Act I:
1. Scene One: Una vela! Una vela!
2. Scene One: Esultate!
3. Scene One: Roderigo, ebben, che pensi?
4. Scene One: Fuoco di gioia...
5. Scene One: Roderigo, beviam!
6. Scene One: Qua, ragazzi, del vino!...Chi all'esca ha morso
7. Scene One: Capiano, v'attende la fazione al baluardi
8. Scene Two: Abbasso le spade!
9. Scene Three: Gia nella notte densa
10. Scene Three: Quando narravi l'esule tua vita...Ed io vedea fra le tue tempie...
Act II:
11. Scene One: Non ti crucciar
12. Scene Two: Credo in un Dio crudel...
13. Scene Two: Eccola... Cassio... a te...
14. Scene Three: Cio ,'accora
15. Scene Three: Dove guardi splendono raggi, avvampan cuori
16. Scene Four: D'un uom che geme sotto il tuo disdegno
17. Scene Four: Se inconscia contro te, sposo...
18. Scene Five: Desdemona rea!
19. Scene Five: Ed ora!... ed ora... Ora e per sempre addio, sante memorie
20. Scene Five: Era la notte, Cassio dormia...
21. Scene Five: Si, pel ciel mamoreo giuro!
Disc 2:Act III:
1. Scene One: La vedetta del porto ha segnalato
2. Scene Two: Dio to giocondi...Esterrefatta fisso lo sguardo tuo tremendo
3. Scene Three & Scene Four: Dio! mio potevi scagliar...Ah! dannazione!
4. Scene Five: Vieni, l'aula e deserta
5. Scene Five: Questa e un ragna
6. Scene Six: Come la uccidero?
7. Scene Seven: Viva! Evviva! Viva il Leon di San Marco
8. Scene Eight: Messeri! Il Doge...
9. Scene Eight: A terra... si... nel livido fango...
10. Scene Nine: Fuggirmi io sol non so... Sangue!
Act IV:
11. Scene One: Era piu calmo?
12. Scene One: Mia madre avea una povera ancella... Piangea cantando
13. Scene Two: Ave Maria...
14. Scene Three: Chi e la? Otello?
15. Scene Three: Aprite! Aprite!
16. Scene Four: Quai grida! Orrore! Orror!
17. Scene Four: Niun mi tema



Показать сообщения:    

Текущее время: 10-Дек 23:26

Часовой пояс: UTC + 3


Вы не можете начинать темы
Вы не можете отвечать на сообщения
Вы не можете редактировать свои сообщения
Вы не можете удалять свои сообщения
Вы не можете голосовать в опросах
Вы не можете прикреплять файлы к сообщениям
Вы не можете скачивать файлы