(Classical) Handel - Partenope, HWV 27 (Gauvin, Jaroussky, Iervolino, Barath, Ainsley, Tittoto; Il Pompo d'Oro; Riccardo Minasi) - 2015, FLAC (image+.cue) lossless


 

[Цитировать]

George Frideric Handel - Partenope, HWV 27 (Riccardo Minasi)
Жанр: Classical
Год издания диска: 2015
Издатель (лейбл): Erato / 0825646090075
Год записи: 2014
Аудиокодек: FLAC
Тип рипа: image+.cue
Битрейт аудио: lossless
Продолжительность: CD1'01:14:31; CD2'01:02:48; CD3'01:16:07
Источник: скачано из сети
Наличие сканов в содержимом раздачи: да (только обложки)
Исполнители:
Partenope - Karina Gauvin
Arsace - Philippe Jaroussky
Rosmira - Teresa Iervolino
Armindo - Emőke Baráth
Emilio - John Mark Ainsley
Ormonte - Luca Tittoto
Il Pompo d'Oro
Direction - Riccardo Minasi

Треклист:

CD1
01. Ouverture - I. (01:45)
02. Ouverture - II. Allegro (02:59)
03. Ouverture - III. Presto (01:30)
ATTO I
04. Scena 1 - Recitativo - Tu dell'eccelse (00:41)
05. Coro - Viva (00:57)
06. Recitativo - Miei fidi (00:21)
07. Scena 2 - Recitativo - Arsace (01:21)
08. Scena 3 - Recitativo - Regina. in folte (00:44)
09. Aria (Partenope) - L'amor ed il destin (03:10)
10. Aria (Arsace) - O Eurimene ha l'idea (02:46)
11. Scena 4 - Recitativo - Cavalier (01:23)
12. Aria (Rosmira) - Se non ti sai spiegar (03:55)
13. Reditativo - Armindo (00:19)
14. Aria (Armindo) - Voglio dire al mio tesoro (05:38)
15. Scena 5 - Recitativo - Ah, ch'un volto (02:11)
16. Aria (Rosmira) - Un'altra volta ancor (02:32)
17. Recitativo - Rosmira, oh dio (00:20)
18. Aria (Arsace) - Sento amor con novi dardi (05:22)
19. Scena 6 -Recitativo- Stan pronti (00:31)
20. Aria (Ormonte) - T'appresta forse Amore (03:38)
21. Scena 7 - Recitativo - Signora (01:36)
22. Aria (Armindo) - Bramo restar, ma no (06:08)
23. Scena 8 - Recitativo e Duettino (Arsace, Partenope) - Per te moro (00:48)
24. Scena 9 - Recitativo - E se giunge (02:12)
25. Aria (Partenope) - Sei mia gioia, sei mio bene (03:15)
26. Recitativo - I novelli (00:32)
27. Aria (Arsace) - Dimmi, pietoso ciel (04:20)
28. Scena 10 - Recitativo - Ecco Emilio (02:11)
29. Aria (Emilio) - Anch'io pugnar sapro (03:13)
30. Scena 11 - Recitativo - Arsace, tu sarai (01:08)
31. Aria (Partenope) - Io ti levo l'impero dell'armi (06:46)
CD2
01. Scena 12 - Recitativo: Lascia, deh, lascia, oh prence (00:49)
02. Scena 12 - Aria: E figlio il mio timore (Arsace) (03:16)
03. Scena 13 - Recitativo: Prence, di te mi lagno (00:43)
04. Scena 13 - Aria: Io seguo sol fiero (Rosmira) (04:33)
Atto II.
05. Scena 1 - Sinfonia (00:32)
06. Recitativo: Forti mie schiere (00:22)
07. Marche (00:58)
08. Recitativo: Ma le nemiche squadre (00:26)
09. Coro: Con valorosa mano (00:54)
10. Sinfonia (00:44)
11. Recitativo: Soccorso (00:15)
12. Sinfonia (00:44)
13. Recitativo: Renditi, oppure estinto (01:15)
14. Coro: Vi circondi la gloria d'allori! (01:32)
15. Scena 2 - Recitativo accompagnato: Contro un pudico amor (00:42)
16. Aria: Barbaro fato, si (Emilio) (04:22)
17. Scena 3 - Aria: Care mura (Partenope) (01:42)
18. Recitativo: Emilio! (02:28)
19. Aria: Voglio amare insin ch'io moro (Partenope) (06:15)
20. Scena 4 - Recitativo: Ti bramo amico, e teco (00:24)
21. Duetto: E vuoi con dure tempre (Arsace, Rosmira) (03:05)
22. Scena 5 - Recitativo: Non puo darsi in un petto (01:43)
23. Aria: Furie son dell'alma mia (Rosmira) (03:16)
24. Scena 6 - Recitativo: A pro di chi t'offese (01:19)
25. Aria: Poterti dir vorrei (Arsace) (03:02)
26. Scena 7 - Recitativo: Regina (01:40)
27. Aria: Non chiedo, oh luci vaghe (Armindo) (02:36)
28. Recitativo: Piu d'ogn'altro sarebbe (00:25)
29. Aria: Qual farfalletta (Partenope) (06:30)
30. Scena 8 - Recitativo: Quanto godo, Eurimene (01:04)
31. Scena 9 - Recitativo: Rosmira mia, mio bene! (00:48)
32. Aria: Furibondo spira il vento (Arsace) (04:04)
CD3
Atto III.
01. Scena 1 - Sinfonia (00:36)
02. Recitativo: Regina, ti compiace (00:46)
03. Quartetto: Non e incauto il mio consiglio (Armindo, Emilio, Arsace,... (01:30)
04. Scena 2 - Recitativo: Partenope, Eurimene (01:45)
05. Arietta: Arsace, oh dio, cosi (Rosmira) (00:55)
06. Recitativo: Chi m'apre i lumi? (00:27)
07. Aria: Spera e godi, oh mio tesoro (Partenope) (02:59)
08. Scena 3 - Recitativo: Prencipe, ardir! (01:05)
09. Aria: La speme ti consoli (Emilio) (04:11)
10. Scena 4 - Recitativo: Rosmira, ove ti guida (01:38)
11. Aria: Ch'io parta? (Arsace) (04:04)
12. Recitativo: Oh dio, par che dal petto (00:31)
13. Aria: Quel volto mi piace (Rosmira) (02:48)
14. Scena 5 - Recitativo: Ormonte, ti destino (01:04)
15. Aria: Nobil core che ben ama (Armindo) (04:05)
16. Scena 6 - Recitativo: Non chiedo, oh miei tormenti (01:06)
17. Aria: Ma quai note di mesti lamenti (Arsace) (02:48)
18. Scena 7 - Recitativo accompagnato: Cieli, che miro! (Rosmira) (00:41)
19. Scena 8 - Recitativo: Ma Partenope vien (01:31)
20. Terzetto: Un cor infedele (Partenope, Arsace, Rosmira) (02:15)
21. Recitativo: Passo di duolo in duolo (00:09)
22. Aria: Fatto e Amor un dio d'inferno (Arsace) (02:58)
23. Scena 9 - Recitativo: Di bel desire avvampo (00:31)
24. Aria: La gloria in nobil alma (Emilio) (04:36)
25. Scena 10 - Sinfonia (00:32)
26. Recitativo: Regina, in queste arene (04:05)
27. Aria: Si, scherza, si (Partenope) (04:01)
28. Recitativo: Armindo sia mio sposo (00:33)
29. Coro: D'Imeneo le belle tede (02:01)
30. Appendix - Recitativo: Regina, in queste arene (04:09)
31. Aria: Seguaci di Cupido (Arsace) (03:47)
32. Recitativo: Tu vanne in libertate (00:19)
33. Coro: D'Imeneo le belle tede (01:25)

Log EAC:LOG CD01:

Exact Audio Copy V1.0 beta 3 from 29. August 2011
EAC extraction logfile from 16. January 2016, 12:03
Il Pompo d'oro - Riccardo Minasi / Handel - Partenope CD1
Used drive : PIONEER BD-RW BDR-207M Adapter: 0 ID: 0
Read mode : SecureUtilize accurate stream : YesDefeat audio cache : YesMake use of C2 pointers : No
Read offset correction : 667Overread into Lead-In and Lead-Out : NoFill up missing offset samples with silence : YesDelete leading and trailing silent blocks : NoNull samples used in CRC calculations : YesUsed interface : Native Win32 interface for Win NT & 2000
Used output format : User Defined EncoderSelected bitrate : 128 kBit/sQuality : HighAdd ID3 tag : NoCommand line compressor : C:\Program Files\Exact Audio Copy\Flac\flac.exeAdditional command line options : -V -8 -T "Date=%year%" -T "Genre=%genre%" %source%
TOC of the extracted CD
Track | Start | Length | Start sector | End sector––––––––––––––––––––––––––––-1 | 0:00.00 | 1:45.55 | 0 | 79292 | 1:45.55 | 2:59.03 | 7930 | 213573 | 4:44.58 | 1:30.62 | 21358 | 281694 | 6:15.45 | 0:41.73 | 28170 | 313175 | 6:57.43 | 0:57.70 | 31318 | 356626 | 7:55.38 | 0:21.69 | 35663 | 373067 | 8:17.32 | 1:21.65 | 37307 | 434468 | 9:39.22 | 0:44.29 | 43447 | 467759 | 10:23.51 | 3:10.33 | 46776 | 6105810 | 13:34.09 | 2:46.13 | 61059 | 7352111 | 16:20.22 | 1:23.44 | 73522 | 7979012 | 17:43.66 | 3:55.73 | 79791 | 9748813 | 21:39.64 | 0:19.28 | 97489 | 9894114 | 21:59.17 | 5:38.30 | 98942 | 12432115 | 27:37.47 | 2:11.18 | 124322 | 13416416 | 29:48.65 | 2:32.61 | 134165 | 14562517 | 32:21.51 | 0:20.74 | 145626 | 14719918 | 32:42.50 | 5:22.50 | 147200 | 17139919 | 38:05.25 | 0:31.35 | 171400 | 17375920 | 38:36.60 | 3:38.53 | 173760 | 19016221 | 42:15.38 | 1:36.19 | 190163 | 19738122 | 43:51.57 | 6:08.11 | 197382 | 22499223 | 49:59.68 | 0:48.50 | 224993 | 22864224 | 50:48.43 | 2:12.18 | 228643 | 23856025 | 53:00.61 | 3:15.04 | 238561 | 25318926 | 56:15.65 | 0:32.25 | 253190 | 25561427 | 56:48.15 | 4:20.57 | 255615 | 27517128 | 61:08.72 | 2:11.20 | 275172 | 28501629 | 63:20.17 | 3:13.49 | 285017 | 29954030 | 66:33.66 | 1:08.19 | 299541 | 30465931 | 67:42.10 | 6:46.44 | 304660 | 335153
Range status and errors
Selected range
Filename C:\Program Files\Exact Audio Copy\Flac\Handel - Partenope CD1.wav
Peak level 98.8 %Extraction speed 7.3 XRange quality 99.9 %Test CRC 5EC1DA6BCopy CRC 5EC1DA6BCopy OK
No errors occurred
End of status report
==== Log checksum 4428A03F66B68174224BD60A4727CCA8455D109F50ACCA2CE536593A65927B43 ====

LOG CD02:

Exact Audio Copy V1.0 beta 3 from 29. August 2011
EAC extraction logfile from 16. January 2016, 12:52
l Pompo d'oro - Riccardo Minasi / Handel - Partenope CD2
Used drive : PIONEER BD-RW BDR-207M Adapter: 0 ID: 0
Read mode : SecureUtilize accurate stream : YesDefeat audio cache : YesMake use of C2 pointers : No
Read offset correction : 667Overread into Lead-In and Lead-Out : NoFill up missing offset samples with silence : YesDelete leading and trailing silent blocks : NoNull samples used in CRC calculations : YesUsed interface : Native Win32 interface for Win NT & 2000
Used output format : User Defined EncoderSelected bitrate : 128 kBit/sQuality : HighAdd ID3 tag : NoCommand line compressor : C:\Program Files\Exact Audio Copy\Flac\flac.exeAdditional command line options : -V -8 -T "Date=%year%" -T "Genre=%genre%" %source%
TOC of the extracted CD
Track | Start | Length | Start sector | End sector––––––––––––––––––––––––––––-1 | 0:00.00 | 0:49.17 | 0 | 36912 | 0:49.17 | 3:16.72 | 3692 | 184633 | 4:06.14 | 0:43.02 | 18464 | 216904 | 4:49.16 | 4:33.66 | 21691 | 422315 | 9:23.07 | 0:32.74 | 42232 | 447056 | 9:56.06 | 0:22.71 | 44706 | 464267 | 10:19.02 | 0:58.59 | 46427 | 508358 | 11:17.61 | 0:26.73 | 50836 | 528589 | 11:44.59 | 0:54.05 | 52859 | 5691310 | 12:38.64 | 0:44.07 | 56914 | 6022011 | 13:22.71 | 0:15.42 | 60221 | 6138712 | 13:38.38 | 0:44.69 | 61388 | 6475613 | 14:23.32 | 1:15.16 | 64757 | 7039714 | 15:38.48 | 1:32.34 | 70398 | 7733115 | 17:11.07 | 0:42.57 | 77332 | 8053816 | 17:53.64 | 4:22.52 | 80539 | 10024017 | 22:16.41 | 1:42.22 | 100241 | 10791218 | 23:58.63 | 2:28.59 | 107913 | 11907119 | 26:27.47 | 6:15.69 | 119072 | 14726520 | 32:43.41 | 0:24.24 | 147266 | 14908921 | 33:07.65 | 3:05.41 | 149090 | 16300522 | 36:13.31 | 1:43.39 | 163006 | 17076923 | 37:56.70 | 3:16.70 | 170770 | 18553924 | 41:13.65 | 1:19.37 | 185540 | 19150125 | 42:33.27 | 3:02.50 | 191502 | 20520126 | 45:36.02 | 1:40.58 | 205202 | 21275927 | 47:16.60 | 2:36.23 | 212760 | 22448228 | 49:53.08 | 0:25.62 | 224483 | 22641929 | 50:18.70 | 6:30.59 | 226420 | 25572830 | 56:49.54 | 1:04.01 | 255729 | 26052931 | 57:53.55 | 0:48.61 | 260530 | 26419032 | 58:42.41 | 4:04.32 | 264191 | 282522
Range status and errors
Selected range
Filename C:\Program Files\Exact Audio Copy\Flac\Handel - Partenope CD2.wav
Peak level 99.0 %Extraction speed 7.2 XRange quality 100.0 %Test CRC DF5B9BE2Copy CRC DF5B9BE2Copy OK
No errors occurred
End of status report
==== Log checksum B56D60C166DC01806780990527C165653A6DD8996FE835513C04E6281821FB27 ====

LOG CD03:

Exact Audio Copy V1.0 beta 3 from 29. August 2011
EAC extraction logfile from 16. January 2016, 13:32
l Pompo d'oro - Riccardo Minasi / Handel - Partenope CD3
Used drive : PIONEER BD-RW BDR-207M Adapter: 0 ID: 0
Read mode : SecureUtilize accurate stream : YesDefeat audio cache : YesMake use of C2 pointers : No
Read offset correction : 667Overread into Lead-In and Lead-Out : NoFill up missing offset samples with silence : YesDelete leading and trailing silent blocks : NoNull samples used in CRC calculations : YesUsed interface : Native Win32 interface for Win NT & 2000
Used output format : User Defined EncoderSelected bitrate : 128 kBit/sQuality : HighAdd ID3 tag : NoCommand line compressor : C:\Program Files\Exact Audio Copy\Flac\flac.exeAdditional command line options : -V -8 -T "Date=%year%" -T "Genre=%genre%" %source%
TOC of the extracted CD
Track | Start | Length | Start sector | End sector––––––––––––––––––––––––––––-1 | 0:00.00 | 0:36.07 | 0 | 27062 | 0:36.07 | 0:46.13 | 2707 | 61693 | 1:22.20 | 1:30.51 | 6170 | 129704 | 2:52.71 | 1:45.26 | 12971 | 208715 | 4:38.22 | 0:55.16 | 20872 | 250126 | 5:33.38 | 0:27.68 | 25013 | 271057 | 6:01.31 | 2:59.19 | 27106 | 405498 | 9:00.50 | 1:05.05 | 40550 | 454299 | 10:05.55 | 4:11.60 | 45430 | 6431410 | 14:17.40 | 1:38.48 | 64315 | 7171211 | 15:56.13 | 4:04.60 | 71713 | 9007212 | 20:00.73 | 0:31.12 | 90073 | 9240913 | 20:32.10 | 2:48.11 | 92410 | 10502014 | 23:20.21 | 1:04.60 | 105021 | 10988015 | 24:25.06 | 4:05.24 | 109881 | 12827916 | 28:30.30 | 1:06.25 | 128280 | 13325417 | 29:36.55 | 2:48.60 | 133255 | 14591418 | 32:25.40 | 0:41.45 | 145915 | 14903419 | 33:07.10 | 1:31.51 | 149035 | 15591020 | 34:38.61 | 2:15.61 | 155911 | 16609621 | 36:54.47 | 0:09.38 | 166097 | 16680922 | 37:04.10 | 2:58.55 | 166810 | 18021423 | 40:02.65 | 0:31.19 | 180215 | 18255824 | 40:34.09 | 4:36.69 | 182559 | 20332725 | 45:11.03 | 0:32.46 | 203328 | 20577326 | 45:43.49 | 4:05.45 | 205774 | 22419327 | 49:49.19 | 4:01.52 | 224194 | 24232028 | 53:50.71 | 0:33.34 | 242321 | 24482929 | 54:24.30 | 2:01.57 | 244830 | 25396130 | 56:26.12 | 4:09.04 | 253962 | 27264031 | 60:35.16 | 3:47.62 | 272641 | 28972732 | 64:23.03 | 0:19.06 | 289728 | 29115833 | 64:42.09 | 1:26.15 | 291159 | 297623
Range status and errors
Selected range
Filename C:\Program Files\Exact Audio Copy\Flac\Handel - Partenope CD3.wav
Peak level 98.9 %Extraction speed 7.2 XRange quality 100.0 %Test CRC 6789EBD6Copy CRC 6789EBD6Copy OK
No errors occurred
End of status report
==== Log checksum 2E1570840B076F5412E8FA015BD64FAC4BA90F214408DD60A63A7C4754AA38E3 ====
Спасибо Vilboa за предоставление материала!



Показать сообщения:    

Текущее время: 05-Дек 13:32

Часовой пояс: UTC + 3


Вы не можете начинать темы
Вы не можете отвечать на сообщения
Вы не можете редактировать свои сообщения
Вы не можете удалять свои сообщения
Вы не можете голосовать в опросах
Вы не можете прикреплять файлы к сообщениям
Вы не можете скачивать файлы