(Opera) Nicola Vaccaj - La sposa di Messina / Никола Ваккаи – Мессинская невеста [World Premiere Recording] (Antonino Fogliani; Jessica Pratt, Filippo Adami, Armando Ariostini, Wakako Ono, Maurizio Lo Piccolo),2009 - live / FLAC(tracks+.cue),lossless


 

[Цитировать]

Nicola Vaccaj - La sposa di Messina / Никола Ваккаи – Мессинская невеста
Жанр: Opera
Страна-производитель диска: Германия
Год издания диска: 2010
Издатель (лейбл): Naxos
Дата записи: 2009
Аудиокодек: FLAC
Тип рипа: tracks+.cue
Битрейт аудио: lossless
Продолжительность: 103:31
Источник: релизер (EL HUMILDE CAMPESINO)
Исполнители:
Donna Isabella, principessa di Messina - Jessica Pratt, Soprano,
Don Emanuele, suo figlio - Filippo Adami, Tenor,
Don Cesare, altro suo figlio - Armando Ariostini, Baritone,
Beatrice - Wakako Ono, Mezzo-soprano,
Diego - Maurizio Lo Piccolo, Bass.
Antonino Fogliani, Conductor,
Virtuosi Brunensis, Orchestra,
Brno Classica Chamber Chorus.
Recorded live at Kursaal, Bad Wildbad, Germany, July 15-18, 2009, for the XXI Rossini in Wildbad Festaval.

Лог создания рипаЛог создания рипа CD 1

Exact Audio Copy V1.0 beta 3 from 29. August 2011
EAC extraction logfile from 27. January 2016, 10:22
Vaccaj, Nicola / La sposa di Messina - CD1
Used drive : HL-DT-STDVDRAM GH24NSC0 Adapter: 3 ID: 0
Read mode : Secure
Utilize accurate stream : Yes
Defeat audio cache : Yes
Make use of C2 pointers : No
Read offset correction : 6
Overread into Lead-In and Lead-Out : No
Fill up missing offset samples with silence : Yes
Delete leading and trailing silent blocks : No
Null samples used in CRC calculations : Yes
Used interface : Native Win32 interface for Win NT & 2000
Gap handling : Appended to previous track
Used output format : User Defined Encoder
Selected bitrate : 768 kBit/s
Quality : High
Add ID3 tag : No
Command line compressor : C:\Program Files (x86)\Exact Audio Copy\FLAC\FLAC.EXE
Additional command line options : -8 -V -T "ARTIST=%artist%" -T "TITLE=%title%" -T "ALBUM=%albumtitle%" -T "DATE=%year%" -T "TRACKNUMBER=%tracknr%" -T "GENRE=%genre%" -T "PERFORMER=%albuminterpret%" -T "COMPOSER=%composer%" %haslyrics%--tag-from-file=LYRICS="%lyricsfile%"%haslyrics% -T "ALBUMARTIST=%albumartist%" -T "DISCNUMBER=%cdnumber%" -T "TOTALDISCS=%totalcds%" -T "TOTALTRACKS=%numtracks%" -T "COMMENT=%comment%" %source% -o %dest%
TOC of the extracted CD
Track | Start | Length | Start sector | End sector
---------------------------------------------------------
1 | 0:00.00 | 2:00.30 | 0 | 9029
2 | 2:00.30 | 3:59.66 | 9030 | 27020
3 | 6:00.21 | 3:55.62 | 27021 | 44707
4 | 9:56.08 | 4:58.65 | 44708 | 67122
5 | 14:54.73 | 8:13.21 | 67123 | 104118
6 | 23:08.19 | 5:39.42 | 104119 | 129585
7 | 28:47.61 | 6:10.43 | 129586 | 157378
8 | 34:58.29 | 7:40.40 | 157379 | 191918
9 | 42:38.69 | 3:24.69 | 191919 | 207287
10 | 46:03.63 | 5:33.19 | 207288 | 232281
11 | 51:37.07 | 5:11.54 | 232282 | 255660
12 | 56:48.61 | 6:17.14 | 255661 | 283949
Track 1
Filename f:\Users\Guillermo\Desktop\EAC convertidos\01 Preludio - Allegro.wav
Pre-gap length 0:00:02.00
Peak level 82.2 %
Extraction speed 1.3 X
Track quality 100.0 %
Test CRC 1DD7C4F4
Copy CRC 1DD7C4F4
Copy OK
Track 2
Filename f:\Users\Guillermo\Desktop\EAC convertidos\02 No. 1 - Introduzione e Terzetto- Oh ben giunti! (Coro, Diego).wav
Peak level 83.7 %
Extraction speed 1.6 X
Track quality 100.0 %
Test CRC A9DF23DB
Copy CRC A9DF23DB
Copy OK
Track 3
Filename f:\Users\Guillermo\Desktop\EAC convertidos\03 Ecco i fratei (Coro, Cesare, Emanuele).wav
Peak level 68.7 %
Extraction speed 1.5 X
Track quality 99.9 %
Test CRC 45FC95B9
Copy CRC 45FC95B9
Copy OK
Track 4
Filename f:\Users\Guillermo\Desktop\EAC convertidos\04 Emanuele! (Cesare, Emanuele, Diego, Coro).wav
Peak level 75.3 %
Extraction speed 2.0 X
Track quality 100.0 %
Test CRC 41D6F914
Copy CRC 41D6F914
Copy OK
Track 5
Filename f:\Users\Guillermo\Desktop\EAC convertidos\05 No.2 - Recitativo- Dunque, amico (Isabella) - Cavatina Isabella- Figli a una sola patria (Isabella, Diego, Coro).wav
Peak level 89.9 %
Extraction speed 2.2 X
Track quality 99.9 %
Test CRC B2F2828A
Copy CRC B2F2828A
Copy OK
Track 6
Filename f:\Users\Guillermo\Desktop\EAC convertidos\06 No.3 - Romanza e Duetto- Emanuel! Così tu m'hai lasciata (Beatrice).wav
Peak level 48.9 %
Extraction speed 2.5 X
Track quality 100.0 %
Test CRC 6CA6CA09
Copy CRC 6CA6CA09
Copy OK
Track 7
Filename f:\Users\Guillermo\Desktop\EAC convertidos\07 Esce dal bosco (Beatrice, Cesare).wav
Peak level 81.4 %
Extraction speed 2.4 X
Track quality 99.9 %
Test CRC F134885E
Copy CRC F134885E
Copy OK
Track 8
Filename f:\Users\Guillermo\Desktop\EAC convertidos\08 No.4 - Scana- Ite, o fedei! - Romanza- Chi fida l'anima (Emanuela).wav
Peak level 44.7 %
Extraction speed 3.0 X
Track quality 100.0 %
Test CRC DC67703A
Copy CRC DC67703A
Copy OK
Track 9
Filename f:\Users\Guillermo\Desktop\EAC convertidos\09 No.5 - Finale primo- Dove in silenzio restasi (Coro).wav
Peak level 56.3 %
Extraction speed 2.7 X
Track quality 100.0 %
Test CRC 2053B57E
Copy CRC 2053B57E
Copy OK
Track 10
Filename f:\Users\Guillermo\Desktop\EAC convertidos\10 O figli, a voi dal tumulo (Isabella, Emanuele, Cesare).wav
Peak level 87.0 %
Extraction speed 3.1 X
Track quality 100.0 %
Test CRC C376009F
Copy CRC C376009F
Copy OK
Track 11
Filename f:\Users\Guillermo\Desktop\EAC convertidos\11 Si giuri omai (Emanuele, Cesare, Isabella, Coro, Diego).wav
Peak level 92.9 %
Extraction speed 3.2 X
Track quality 100.0 %
Test CRC CABC4F7C
Copy CRC CABC4F7C
Copy OK
Track 12
Filename f:\Users\Guillermo\Desktop\EAC convertidos\12 La mia figlia, la mia vita (Isabella, Coro, Emanuele, Cesare, Diego).wav
Peak level 87.0 %
Extraction speed 3.4 X
Track quality 100.0 %
Test CRC 8F8B234C
Copy CRC 8F8B234C
Copy OK
No errors occurred
End of status report
==== Log checksum 73AFF10C886DDE68A6427A729368F74B640ADA224A6D3075C90CBECA262056C2 ====[/pre]

Лог создания рипа CD 2

Exact Audio Copy V1.0 beta 3 from 29. August 2011
EAC extraction logfile from 27. January 2016, 12:58
Vaccaj, Nicola / La sposa di Messina - CD2
Used drive : HL-DT-STDVDRAM GH24NSC0 Adapter: 3 ID: 0
Read mode : Secure
Utilize accurate stream : Yes
Defeat audio cache : Yes
Make use of C2 pointers : No
Read offset correction : 6
Overread into Lead-In and Lead-Out : No
Fill up missing offset samples with silence : Yes
Delete leading and trailing silent blocks : No
Null samples used in CRC calculations : Yes
Used interface : Native Win32 interface for Win NT & 2000
Gap handling : Appended to previous track
Used output format : User Defined Encoder
Selected bitrate : 768 kBit/s
Quality : High
Add ID3 tag : No
Command line compressor : C:\Program Files (x86)\Exact Audio Copy\FLAC\FLAC.EXE
Additional command line options : -8 -V -T "ARTIST=%artist%" -T "TITLE=%title%" -T "ALBUM=%albumtitle%" -T "DATE=%year%" -T "TRACKNUMBER=%tracknr%" -T "GENRE=%genre%" -T "PERFORMER=%albuminterpret%" -T "COMPOSER=%composer%" %haslyrics%--tag-from-file=LYRICS="%lyricsfile%"%haslyrics% -T "ALBUMARTIST=%albumartist%" -T "DISCNUMBER=%cdnumber%" -T "TOTALDISCS=%totalcds%" -T "TOTALTRACKS=%numtracks%" -T "COMMENT=%comment%" %source% -o %dest%
TOC of the extracted CD
Track | Start | Length | Start sector | End sector
---------------------------------------------------------
1 | 0:00.00 | 7:57.45 | 0 | 35819
2 | 7:57.45 | 9:04.07 | 35820 | 76626
3 | 17:01.52 | 5:15.66 | 76627 | 100317
4 | 22:17.43 | 4:23.18 | 100318 | 120060
5 | 26:40.61 | 6:14.56 | 120061 | 148166
6 | 32:55.42 | 7:25.33 | 148167 | 181574
Track 1
Filename f:\Users\Guillermo\Desktop\EAC convertidos\01 Act II, No.6 - Coro- Voi pur vedeste (Coro, Cesare) - Aria- Mio fratello Ei stesso (Cesare, Coro).wav
Pre-gap length 0:00:02.00
Peak level 86.3 %
Extraction speed 1.7 X
Track quality 100.0 %
Test CRC B95441C0
Copy CRC B95441C0
Copy OK
Track 2
Filename f:\Users\Guillermo\Desktop\EAC convertidos\02 No.7 - Scena- Per la selva vicina (Emanuele) - Duetto- O desio della mia vita (Emanuele, Beatrice, Cesare, Coro) - Terzetto- Così i tuoi giorni serbansi (Cesare, Emanuele, Beatrice, Coro).wav
Peak level 96.9 %
Extraction speed 2.1 X
Track quality 100.0 %
Test CRC 29B5B857
Copy CRC 29B5B857
Copy OK
Track 3
Filename f:\Users\Guillermo\Desktop\EAC convertidos\03 No.8 - Finale secondo- Sovra il suo viso languido (Coro, Isabella).wav
Peak level 55.4 %
Extraction speed 2.2 X
Track quality 100.0 %
Test CRC 59CB2DE6
Copy CRC 59CB2DE6
Copy OK
Track 4
Filename f:\Users\Guillermo\Desktop\EAC convertidos\04 Dove son io (Beatrice, Isabella, Coro).wav
Peak level 70.5 %
Extraction speed 2.2 X
Track quality 100.0 %
Test CRC 0683C10D
Copy CRC 0683C10D
Copy OK
Track 5
Filename f:\Users\Guillermo\Desktop\EAC convertidos\05 Egli morì (Coro, Isabella, Beatrice, Diego, Cesare).wav
Peak level 97.0 %
Extraction speed 2.3 X
Track quality 99.9 %
Test CRC 5E11720D
Copy CRC 5E11720D
Copy OK
Track 6
Filename f:\Users\Guillermo\Desktop\EAC convertidos\06 Al fratel, deh! che almeno mi unisca (Cesare, Isabella, Beatrice, Coro).wav
Peak level 91.4 %
Extraction speed 2.8 X
Track quality 100.0 %
Test CRC 766BC2EE
Copy CRC 766BC2EE
Copy OK
No errors occurred
End of status report
==== Log checksum 24D30D6A91D679A52F2F8225EE7F54EE2DD2023E879C0DF1EDDC5A9D1673F9CA ====[/pre]

Содержание индексной карты (.CUE)Содержание индексной карты (.CUE) CD 1

REM GENRE OperaREM DATE 2009REM DISCID A00ECA0CREM COMMENT "ExactAudioCopy v1.0b3"FILE "01 Preludio - Allegro.wav" WAVE TRACK 01 AUDIO INDEX 01 00:00:00FILE "02 No. 1 - Introduzione e Terzetto- Oh ben giunti! (Coro, Diego).wav" WAVE TRACK 02 AUDIO INDEX 01 00:00:00FILE "03 Ecco i fratei (Coro, Cesare, Emanuele).wav" WAVE TRACK 03 AUDIO INDEX 01 00:00:00FILE "04 Emanuele! (Cesare, Emanuele, Diego, Coro).wav" WAVE TRACK 04 AUDIO INDEX 01 00:00:00FILE "05 No.2 - Recitativo- Dunque, amico (Isabella) - Cavatina Isabella- Figli a una sola patria (Isabella, Diego, Coro).wav" WAVE TRACK 05 AUDIO INDEX 01 00:00:00FILE "06 No.3 - Romanza e Duetto- Emanuel! Cosм tu m'hai lasciata (Beatrice).wav" WAVE TRACK 06 AUDIO INDEX 01 00:00:00FILE "07 Esce dal bosco (Beatrice, Cesare).wav" WAVE TRACK 07 AUDIO INDEX 01 00:00:00FILE "08 No.4 - Scana- Ite, o fedei! - Romanza- Chi fida l'anima (Emanuela).wav" WAVE TRACK 08 AUDIO INDEX 01 00:00:00FILE "09 No.5 - Finale primo- Dove in silenzio restasi (Coro).wav" WAVE TRACK 09 AUDIO INDEX 01 00:00:00FILE "10 O figli, a voi dal tumulo (Isabella, Emanuele, Cesare).wav" WAVE TRACK 10 AUDIO INDEX 01 00:00:00FILE "11 Si giuri omai (Emanuele, Cesare, Isabella, Coro, Diego).wav" WAVE TRACK 11 AUDIO INDEX 01 00:00:00FILE "12 La mia figlia, la mia vita (Isabella, Coro, Emanuele, Cesare, Diego).wav" WAVE TRACK 12 AUDIO INDEX 01 00:00:00

Содержание индексной карты (.CUE) CD 2

REM GENRE OperaREM DATE 2009REM DISCID 4D097506REM COMMENT "ExactAudioCopy v1.0b3"FILE "01 Act II, No.6 - Coro- Voi pur vedeste (Coro, Cesare) - Aria- Mio fratello Ei stesso (Cesare, Coro).wav" WAVE TRACK 01 AUDIO INDEX 01 00:00:00FILE "02 No.7 - Scena- Per la selva vicina (Emanuele) - Duetto- O desio della mia vita (Emanuele, Beatrice, Cesare, Coro) - Terzetto- Cosм i tuoi giorni serbansi (Cesare, Emanuele, Beatrice, Coro).wav" WAVE TRACK 02 AUDIO INDEX 01 00:00:00FILE "03 No.8 - Finale secondo- Sovra il suo viso languido (Coro, Isabella).wav" WAVE TRACK 03 AUDIO INDEX 01 00:00:00FILE "04 Dove son io (Beatrice, Isabella, Coro).wav" WAVE TRACK 04 AUDIO INDEX 01 00:00:00FILE "05 Egli morм (Coro, Isabella, Beatrice, Diego, Cesare).wav" WAVE TRACK 05 AUDIO INDEX 01 00:00:00FILE "06 Al fratel, deh! che almeno mi unisca (Cesare, Isabella, Beatrice, Coro).wav" WAVE TRACK 06 AUDIO INDEX 01 00:00:00

Треклист

Disc 1:
Preludio: Allegro 2:02
Act I:
Introduzione e Terzetto: Oh ben giunti! (Chorus, Diego) 4:00
Ecco i fratei (Chorus, Cesare, Emanuele) 3:56
Emanuele! (Cesare, Emanuele, Diego, Chorus) 4:59
Recitativo: Dunque, amico? (Isabella) - Cavatina Isabella: Figli a una sola patria (Isabella, Diego, Chorus) 8:13
Romanza e Duetto: Emanuel! Cosi tu m'hai lasciata (Beatrice) 5:40
Esce dal bosco (Beatrice, Cesare) 6:11
Scena: Ite, o fedei! - Romanza: Chi fida l'anima (Emanuele) 7:41
Finale: Dove in silenzio restasi (Chorus) 3:25
O figli, a voi dal tumulo (Isabella, Emanuele, Cesare) 5:33
Si giuri omai (Emanuele, Cesare, Isabella, Chorus, Diego) 5:12
La mia figlia, la mia vita (Isabella, Chorus, Emanuele, Cesare, Diego) 6:17
Disc 2:
Act II:
Coro: Voi pur vedeste (Chorus, Cesare) - Aria: Mio fratello? Ei stesso (Cesare, Chorus) 8:00
Scena: Per la selva vicina (Emanuele) - Duetto: O desio della mia vita (Emanuele, Beatrice, Cesare, Chorus) - Terzetto: Cosi i tuoi giorni serbansi (Cesare, Emanuele, Beatrice, Chorus) 9:04
Finale: Sovra il suo viso languido (Chorus, Isabella) 5:16
Dove son io? (Beatrice, Isabella, Chorus) 4:23
Egli mori (Chorus, Isabella, Beatrice, Diego, Cesare) 6:15
Al fratel, deh! che almeno mi unisca (Cesare, Isabella, Beatrice, Chorus) 7:25



Показать сообщения:    

Текущее время: 08-Дек 17:25

Часовой пояс: UTC + 3


Вы не можете начинать темы
Вы не можете отвечать на сообщения
Вы не можете редактировать свои сообщения
Вы не можете удалять свои сообщения
Вы не можете голосовать в опросах
Вы не можете прикреплять файлы к сообщениям
Вы не можете скачивать файлы