Искатели - "Геральдический детектив" [2016, документальный, DVB-AVC]


Статистика раздачи [Обновить пиров]
Размер:  943 MB   |    Зарегистрирован:  10 месяцев 1 день   |    Скачан:  0 раз

Полного источника не было: Никогда

Личеров:  6  [  0 KB/s  ]   Подробная статистика пиров
 
   
 
 
 

[Цитировать]

Искатели - "Геральдический детектив".
Год выпуска: 2016
Страна: Россия
Жанр: Документальный
Продолжительность: 00:44:03
Субтитры: русские (Teletext)
Перевод: Не требуется

Описание

Цикл познавательно-приключенческих программ, посвященный общественно значимым событиям истории России и зарубежья, а также частным историям известных людей, которые оставили потомкам много вопросов и тайн. Жанр цикла – историческое расследование, "телевизионные приключения для взрослых". Чтобы разгадать очередную тайну, "Искатели" исследуют как летописные источники, так и находки, обнаруженные непосредственно на месте исторических событий .
В выпуске: В 1877 году было создано акционерное общество "Товарищество мануфактур Н.Н. Коншина в Серпухове". Фабрика не только прославила Серпухов, но полностью поменяла его облик и экономику - из потерявшего былое значение древнего городка он превратился в процветающий современный промышленный город. На гербе же Серпухова оказалось не что иное, как павлин с роскошным хвостом. Львы, слоны, павлины - образы заморской живности были популярны на Руси издревле и нередко становились элементом декора… Но одно дело - искусство, а другое - геральдика. Как павлин мог попасть на герб старинного города? Почему экзотическая птица стала символом города, который, в свою очередь, является одним из символов Древней Руси? ...
Качество видео: DVB
Формат видео: MPEG-TS
Видео: MPEG4 Video (H264), 720x576@785x576 (4:3), анаморф, 25 fps, 2700 kbps
Аудио: MPEG Audio, 2 сh, 48 kHz, 192 kbps
Трансляция спутникового канала:

MediaInfo

D:\Искатели. Геральдический детектив. (2016)_DVB by SLuMeP.ts
General #1
ID : 1 (0x1)
Complete name : D:\Искатели. Геральдический детектив. (2016)_DVB by SLuMeP.ts
Format : MPEG-TS
File size : 943 MiB
Duration : 44mn 3s
Overall bit rate mode : Variable
Overall bit rate : 2 994 Kbps
Video #2506
ID : 2506 (0x9CA)
Menu ID : 506 (0x1FA)
Format : AVC
Format/Info : Advanced Video Codec
Format profile : Main@L3.0
Format settings, CABAC : Yes
Format settings, ReFrames : 3 frames
Format settings, GOP : M=4, N=28
Codec ID : 27
Duration : 44mn 2s
Bit rate : 2 652 Kbps
Width : 720 pixels
Height : 576 pixels
Display aspect ratio : 4:3
Frame rate : 25.000 fps
Standard : Component
Color space : YUV
Chroma subsampling : 4:2:0
Bit depth : 8 bits
Scan type : Interlaced
Scan order : Top Field First
Bits/(Pixel*Frame) : 0.256
Stream size : 836 MiB (89%)
Color primaries : BT.601 PAL
Transfer characteristics : BT.470 System B, BT.470 System G
Matrix coefficients : BT.601
Audio #3506
ID : 3506 (0xDB2)
Menu ID : 506 (0x1FA)
Format : MPEG Audio
Format version : Version 1
Format profile : Layer 2
Codec ID : 3
Duration : 44mn 2s
Bit rate mode : Constant
Bit rate : 192 Kbps
Channel(s) : 2 channels
Sampling rate : 48.0 KHz
Compression mode : Lossy
Delay relative to video : -40ms
Stream size : 60.5 MiB (6%)
Language : English
Text #3507-100
ID : 3507 (0xDB3)-100
Menu ID : 506 (0x1FA)
Format : Teletext Subtitle
Language : Russian
Menu #1506
ID : 1506 (0x5E2)
Menu ID : 506 (0x1FA)
Duration : 44mn 3s
List : 2506 (0x9CA) (AVC) / 3506 (0xDB2) (MPEG Audio, English) / 3507 (0xDB3) ()
Language : / English

Скриншоты

[teatrix.ru].t14723.torrent 
Торрент: Зарегистрирован [ 2016-02-09 12:50 ] · 63AEE3C4512A9BAE85824DA543EA2DB0B4E823B7

Скачать .torrent

Скачать

19 KB

Статус: проверено
Скачан: 0 раз
Размер: 943 MB
terms.php



Быстрый ответ

Имя:

      
Для отправки сообщений необходимо включить JavaScript
Показать сообщения:    

Текущее время: 11-Дек 09:03

Часовой пояс: UTC + 3


Вы можете начинать темы
Вы можете отвечать на сообщения
Вы не можете редактировать свои сообщения
Вы не можете удалять свои сообщения
Вы не можете голосовать в опросах
Вы не можете прикреплять файлы к сообщениям
Вы можете скачивать файлы