Война и Голливуд: 1939-1945 (эпизод 1 из 3) / La guerre d\'Hollywood: 1939-1945 (Мишель Виотт / Michel Viotte) [2013, документальный, кинематограф, DVB] Original (Fre) + Sub (Rus, Fre)


Статистика раздачи [Обновить пиров]
Размер:  1.07 GB   |    Зарегистрирован:  9 месяцев 24 дня   |    Скачан:  0 раз

Полного источника не было: Никогда

Личеров:  6  [  0 KB/s  ]   Подробная статистика пиров
 
   
 
 
 

[Цитировать]

Война и Голливуд: 1939-1945
La guerre d'Hollywood: 1939-1945- Дата/Год выпуска: 2013
Страна: Франция
Жанр: документальный, кинематограф
Продолжительность: 00:49:51
Перевод: Субтитры
Доп. инфо о переводе: русский перевод И.Рыбкиной, Éclair Media
Русские субтитры: есть
Формат субтитров: prerendered (IDX+SUB), softsub (SRT)
Доп. информация о субтитрах: русские, нидерландские, румынские - (IDX+SUB); французские - (SRT)
Оригинальная аудиодорожка: французский
Режиссер: Мишель Виотт / Michel Viotte
В ролях: Филипп Торретон / Philippe Torreton (voice)
Телеканал: TV5MONDE Europe
Описание: Во время Второй мировой войны Голливуд оказал поддержку правительству. Индустрия кино задействовала всех продюсеров, сценаристов, актеров, студийных работников и звезд. Мощная пропагандистская машина набирала обороты, поддерживая союзников в борьбе с нацистской Германией, фашистской Италией и Японией. Гражданская сознательность Голливуда достойна уважения. Ничего подобного в истории еще не было. (из предисловия к фильму)
Доп. информация: Hot Bird (13.0°E) DVB-S. Во время нефранцузской речи вшитые французские субтитры.

качество: DVB
формат: MKV
Видео: MPEG Video 2, 720x576 (16:9), 25 fps, ~2828 kbps avg, 0.273 bit/pixel
Аудио: MPEG Audio 2, 2 ch, 48 kHz, 192 kbps - французский

Список выпусков/серий

01. В едином порыве / Unis sous le drapeau

Информация по редактированию

Topfield SRP-2410 – запись спутниковой трансляции DVB-S (.rec)ProjectX 0.91.0.10 - разбор контейнера, удаление рекламы и доп. информацииBD Sup2Sub 5.1.2 – конвертация DVB-субтитров (IFO+SUP) -> (IDX+SUB)MKVToolNix GUI 8.8.0 – сборка в контейнер MKVMkvTagger – редактирование тегов

MediaInfo

ОбщееУникальный идентификатор : 181447149507830179249233510328022221037 (0x88817329C4AFC2FCA96217AD294A40ED)Полное имя : F:\My Torrents 3\[apreder]La_guerre_d'Hollywood_1939-1945(2013)\01. Unis_sous_le_drapeau(2013)DVB.mkvФормат : MatroskaВерсия формата : Version 2Размер файла : 1,07 ГбайтПродолжительность : 49 м.Режим общего битрейта : ПеременныйОбщий поток : 3082 Кбит/секНазвание фильма : La guerre d'Hollywood 1939/1945Дата выпуска : 2013-12-13Дата кодирования : UTC 2016-02-06 07:16:01Программа кодирования : mkvmerge v8.8.0 ('Wind at my back') 64bitБиблиотека кодирования : libebml v1.3.3 + libmatroska v1.4.4Обложка : YesAttachments : cover.jpg / cover_small.jpgACTOR : Philippe TorretonDIRECTOR : Michel ViotteGENRE : DocumentaryIMDB : tt4964552KEYWORDS : LAW_RATING : 16+SUMMARY : ep.01 Unis sous le drapeau
ВидеоИдентификатор : 1Формат : MPEG VideoВерсия формата : Version 2Профиль формата : Main@MainПараметр BVOP формата : ДаПараметр матрицы формата : ВыборочнаяПараметр GOP формата : M=4, N=12Format_Settings_PictureStructure : FrameИдентификатор кодека : V_MPEG2Идентификатор кодека/Информация : MPEG 1 or 2 VideoПродолжительность : 49 м.Вид битрейта : ПеременныйБитрейт : 2828 Кбит/секШирина : 720 пикселейВысота : 576 пикселейСоотношение сторон : 16:9Режим частоты кадров : ПостоянныйЧастота кадров : 25,000 кадров/секСтандарт вещания : PALЦветовое пространство : YUVСубдискретизация насыщенности : 4:2:0Битовая глубина : 8 битТип развёртки : ЧересстрочнаяПорядок развёртки : Верхнее поле первоеМетод сжатия : С потерямиБит/(Пиксели*Кадры) : 0.273Временной код первого кадра : 00:00:00:00Оригинал временного кода : Group of pictures headerРазмер потока : 1009 Мбайт (92%)Default : ДаForced : Нет
АудиоИдентификатор : 2Формат : MPEG AudioВерсия формата : Version 1Профиль формата : Layer 2Режим : Joint stereoРасширение режима : Intensity Stereo + MS StereoИдентификатор кодека : A_MPEG/L2Идентификатор кодека/Подсказка : MP2Продолжительность : 49 м.Вид битрейта : ПостоянныйБитрейт : 192 Кбит/секКаналы : 2 каналаЧастота : 48,0 КГцМетод сжатия : С потерямиРазмер потока : 68,5 Мбайт (6%)Язык : FrenchDefault : ДаForced : Нет
Текст #1Идентификатор : 3Формат : VobSubИдентификатор кодека : S_VOBSUBИдентификатор кодека/Информация : Picture based subtitle format used on DVDsЯзык : RussianDefault : НетForced : Нет
Текст #2Идентификатор : 4Формат : UTF-8Идентификатор кодека : S_TEXT/UTF8Идентификатор кодека/Информация : UTF-8 Plain TextЯзык : FrenchDefault : НетForced : Нет
Текст #3Идентификатор : 5Формат : VobSubИдентификатор кодека : S_VOBSUBИдентификатор кодека/Информация : Picture based subtitle format used on DVDsЯзык : DutchDefault : НетForced : Нет
Текст #4Идентификатор : 6Формат : VobSubИдентификатор кодека : S_VOBSUBИдентификатор кодека/Информация : Picture based subtitle format used on DVDsЯзык : RomanianDefault : НетForced : Нет

Скриншоты


Резервные скриншоты



-

Внимание! Раздача ведётся путём добавления новых выпусков

Внимание! Раздача ведётся путём добавления новых выпусков; при каждом добавлении создаётся новый торрент. Чтобы начать докачку нового выпуска, пользователям необходимо сделать следующее:
(1) остановить скачивание,
(2) удалить старый торрент у себя из клиента (старые серии удалять не надо),
(3) скачать новый торрент и запустить его у себя в клиенте вместо старого, при этом указать клиенту путь в старую папку куда и должно происходить скачивание новых выпусков.
Ваш клиент при этом должен произвести хеширование (проверку) старой папки (если не производит сам - помогите ему сделать это). В результате он будет докачивать только те выпуски, которых у Вас ещё нет. Старые выпуски при этом не удаляются, а продолжают раздаваться!
Eсли Вы уже удалили старые выпуски, то предотвратить их повторную закачку можно, сняв галочки в соответствующих местах при запуске нового торрента. По возможности, желательно не удалять старые выпуски как можно дольше, чтобы релизёр не только продолжал раздавать старые выпуски, но и смог сконцентрироваться на новых.
[teatrix.ru].t14727.torrent 
Торрент: Зарегистрирован [ 2016-02-09 12:50 ] · 0DC82D8A7B5B61D972B61FDE35EFF9D52992D7C8

Скачать .torrent

Скачать

11 KB

Статус: проверено
Скачан: 0 раз
Размер: 1.07 GB
terms.php



Показать сообщения:    

Текущее время: 05-Дек 07:26

Часовой пояс: UTC + 3


Вы не можете начинать темы
Вы не можете отвечать на сообщения
Вы не можете редактировать свои сообщения
Вы не можете удалять свои сообщения
Вы не можете голосовать в опросах
Вы не можете прикреплять файлы к сообщениям
Вы можете скачивать файлы