50 худших фильмов / The 50 Worst Movies Ever Made (Данте Дж. Пульезе / Dante J. Pugliese) [2004, документальный, кинематограф, DVB] DVO (Петербург, 5-й канал)


Статистика раздачи [Обновить пиров]
Размер:  1.09 GB   |    Зарегистрирован:  9 месяцев 27 дней   |    Скачан:  0 раз

Полного источника не было: Никогда

Личеров:  6  [  0 KB/s  ]   Подробная статистика пиров
 
   
 
 
 

[Цитировать]

50 худших фильмов
The 50 Worst Movies Ever Made- Дата/Год выпуска: 2004
Страна: США
Жанр: документальный, кинематограф
Продолжительность: 00:59:59
Перевод: Профессиональный (многоголосый закадровый)
Доп. инфо о переводе: Отдел дублирования телерадиокомпании "Петербург, 5-й канал"
Русские субтитры: нет
Режиссер: Данте Дж. Пульезе / Dante J. Pugliese
Телеканал: Ретро ТВ
Описание: Одни фильмы плохи настолько, что они хороши, а другие просто плохи, очень плохи, худшие на свете. По последним подсчетам их 50. Это 50 самых ужасных фильмов, сделанных руками человека. От типов в костюме гориллы и трансвеститов до безруких мастеров кун-фу. Некоторые из них вы, наверное, видели, и не захотите увидеть снова, но они все здесь, от плохих до отвратительных.
Доп. информация: IPTV

качество: DVB
формат: MKV
Видео: MPEG Video 2, 720x576 (4:3), 25 fps, ~2352 kbps avg, 0.227 bit/pixel
Аудио: MPEG Audio 2, 2 ch, 48 kHz, 192 kbps

Информация по редактированию

Simple TV – запись IPTV (.ts)ProjectX 0.91.0.10 - разбор контейнера, удаление рекламы и доп. информацииMKVToolNix GUI 8.8.0 – сборка в контейнер MKVMkvTagger – редактирование тегов

MediaInfo

ОбщееУникальный идентификатор : 195993339289783189947577165972023189082 (0x9372F1B0CA743EC091848ECC6CEE9E5A)Полное имя : F:\My Torrents 3\[apreder]The_50_Worst_Movies_Ever_Made(2004)DVB.mkvФормат : MatroskaВерсия формата : Version 2Размер файла : 1,09 ГбайтПродолжительность : 59 м.Режим общего битрейта : ПеременныйОбщий поток : 2596 Кбит/секНазвание фильма : The 50 Worst Movies Ever MadeДата выпуска : 2004-07-13Дата кодирования : UTC 2016-02-01 14:48:35Программа кодирования : mkvmerge v8.8.0 ('Wind at my back') 64bitБиблиотека кодирования : libebml v1.3.3 + libmatroska v1.4.4Обложка : YesAttachments : cover.jpg / cover_small.jpgDIRECTOR : Dante J. PuglieseGENRE : DocumentaryIMDB : tt0449786KEYWORDS : LAW_RATING : 16+
ВидеоИдентификатор : 1Формат : MPEG VideoВерсия формата : Version 2Профиль формата : Main@MainПараметр BVOP формата : ДаПараметр матрицы формата : ВыборочнаяПараметр GOP формата : M=3, N=12Format_Settings_PictureStructure : FrameИдентификатор кодека : V_MPEG2Идентификатор кодека/Информация : MPEG 1 or 2 VideoПродолжительность : 59 м.Вид битрейта : ПеременныйБитрейт : 2352 Кбит/секШирина : 720 пикселейВысота : 576 пикселейСоотношение сторон : 4:3Режим частоты кадров : ПостоянныйЧастота кадров : 25,000 кадров/секСтандарт вещания : PALЦветовое пространство : YUVСубдискретизация насыщенности : 4:2:0Битовая глубина : 8 битТип развёртки : ЧересстрочнаяПорядок развёртки : Верхнее поле первоеМетод сжатия : С потерямиБит/(Пиксели*Кадры) : 0.227Временной код первого кадра : 00:00:00:00Оригинал временного кода : Group of pictures headerРазмер потока : 1009 Мбайт (91%)Default : ДаForced : Нет
АудиоИдентификатор : 2Формат : MPEG AudioВерсия формата : Version 1Профиль формата : Layer 2Идентификатор кодека : A_MPEG/L2Идентификатор кодека/Подсказка : MP2Продолжительность : 59 м.Вид битрейта : ПостоянныйБитрейт : 192 Кбит/секКаналы : 2 каналаЧастота : 48,0 КГцМетод сжатия : С потерямиРазмер потока : 82,4 Мбайт (7%)Язык : RussianDefault : ДаForced : Нет

Скриншоты


Резервные скриншоты


[teatrix.ru].t14728.torrent 
Торрент: Зарегистрирован [ 2016-02-09 12:50 ] · 888B3E9CEB0755E4EFB5988216CB6C4DAF1AC63A

Скачать .torrent

Скачать

11 KB

Статус: проверено
Скачан: 0 раз
Размер: 1.09 GB
terms.php



Показать сообщения:    

Текущее время: 07-Дек 23:15

Часовой пояс: UTC + 3


Вы не можете начинать темы
Вы не можете отвечать на сообщения
Вы не можете редактировать свои сообщения
Вы не можете удалять свои сообщения
Вы не можете голосовать в опросах
Вы не можете прикреплять файлы к сообщениям
Вы можете скачивать файлы