(Classical, piano) Александр Скрябин - Мазурки, Opp. 3 & 25 - Самуил Фейнберг - 2014, FLAC (image+.cue) lossless


 

[Цитировать]

Александр Скрябин - Мазурки, Opp. 3 & 25 - Самуил Фейнберг
Жанр: Classical, piano
Страна-производитель диска: Россия
Год издания диска: 2014
Издатель (лейбл): Мелодия
Номер по каталогу: MEL CD 10 02192
Дата записи: 1950s
Аудиокодек: FLAC
Тип рипа: image+.cue
Битрейт аудио: lossless
Продолжительность: 62:52
Источник: собственный рип
Наличие сканов в содержимом раздачи: да
Треклист:
Александр Скрябин (1872-1915)
[1]-[10] Десять мазурок, Op.3
[11]-[19] Девять мазурок, Op.25
Исполнители:
Самуил Фейнберг фортепиано

Лог создания рипа

Exact Audio Copy V1.0 beta 3 from 29. August 2011
EAC extraction logfile from 9. May 2015, 11:08
Samuil Feinberg / Scriabin - Mazurkas, Opp. 3 & 25
Used drive : HL-DT-STDVDRAM GU70N Adapter: 0 ID: 0
Read mode : SecureUtilize accurate stream : YesDefeat audio cache : YesMake use of C2 pointers : No
Read offset correction : 48Overread into Lead-In and Lead-Out : NoFill up missing offset samples with silence : YesDelete leading and trailing silent blocks : NoNull samples used in CRC calculations : YesUsed interface : Native Win32 interface for Win NT & 2000
Used output format : User Defined EncoderSelected bitrate : 128 kBit/sQuality : HighAdd ID3 tag : NoCommand line compressor : C:\Program Files (x86)\Exact Audio Copy\Flac\flac.exeAdditional command line options : -V -8 -T "Date=%year%" -T "Genre=%genre%" %source%
TOC of the extracted CD
Track | Start | Length | Start sector | End sector --------------------------------------------------------- 1 | 0:00.00 | 3:44.52 | 0 | 16851 2 | 3:44.52 | 2:11.36 | 16852 | 26712 3 | 5:56.13 | 1:58.20 | 26713 | 35582 4 | 7:54.33 | 3:57.33 | 35583 | 53390 5 | 11:51.66 | 4:04.48 | 53391 | 71738 6 | 15:56.39 | 2:19.33 | 71739 | 82196 7 | 18:15.72 | 3:28.36 | 82197 | 97832 8 | 21:44.33 | 2:38.68 | 97833 | 109750 9 | 24:23.26 | 2:56.10 | 109751 | 122960 10 | 27:19.36 | 5:31.59 | 122961 | 147844 11 | 32:51.20 | 2:44.59 | 147845 | 160203 12 | 35:36.04 | 3:29.28 | 160204 | 175906 13 | 39:05.32 | 2:07.39 | 175907 | 185470 14 | 41:12.71 | 3:57.21 | 185471 | 203266 15 | 45:10.17 | 3:43.53 | 203267 | 220044 16 | 48:53.70 | 2:45.39 | 220045 | 232458 17 | 51:39.34 | 4:56.74 | 232459 | 254732 18 | 56:36.33 | 2:45.49 | 254733 | 267156 19 | 59:22.07 | 3:28.21 | 267157 | 282777
Range status and errors
Selected range
Filename C:\temp\Scriabin - Mazurkas, Opp. 3 & 25\Scriabin - Mazurkas, Opp. 3 & 25.wav
Peak level 91.7 % Extraction speed 2.1 X Range quality 100.0 % Test CRC 1DA96F66 Copy CRC 1DA96F66 Copy OK
No errors occurred
AccurateRip summary
Track 1 not present in databaseTrack 2 not present in databaseTrack 3 not present in databaseTrack 4 not present in databaseTrack 5 not present in databaseTrack 6 not present in databaseTrack 7 not present in databaseTrack 8 not present in databaseTrack 9 not present in databaseTrack 10 not present in databaseTrack 11 not present in databaseTrack 12 not present in databaseTrack 13 not present in databaseTrack 14 not present in databaseTrack 15 not present in databaseTrack 16 not present in databaseTrack 17 not present in databaseTrack 18 not present in databaseTrack 19 not present in database
None of the tracks are present in the AccurateRip database
End of status report
==== Log checksum B0F422EA769EE785B69FC9EB8CD5BCA35D9EB3ECAAA32E3563ED1F8633FB1523 ====



Показать сообщения:    

Текущее время: 06-Дек 22:54

Часовой пояс: UTC + 3


Вы не можете начинать темы
Вы не можете отвечать на сообщения
Вы не можете редактировать свои сообщения
Вы не можете удалять свои сообщения
Вы не можете голосовать в опросах
Вы не можете прикреплять файлы к сообщениям
Вы не можете скачивать файлы