(Classical, organ) Aus Johann Sebastian Bachs Componirstube: J.S., W.F., C.P.E. Bach, Krebs, Kittel, Muthel - Bruno Oberhammer - 2012, FLAC (image+.cue) lossless


 

[Цитировать]

Aus Johann Sebastian Bachs Componirstube: J.S., W.F., C.P.E. Bach, Krebs, Kittel, Müthel - Bruno Oberhammer
Жанр: Classical, organ
Год издания диска: 2012
Издатель (лейбл): VMS Musical Treasures
Номер по каталогу: VMS 233
Дата записи: 2012
Аудиокодек: FLAC
Тип рипа: image+.cue
Битрейт аудио: lossless
Продолжительность: 75:17
Источник: собственный рип
Наличие сканов в содержимом раздачи: да
Треклист:
Johann Sebastian Bach (1685-1750)
[1] Passacaglia in C minor, BWV 582
[2] Herr Jesu Christ, dich zu uns wend, BWV 709
[3] Herzlich tut mich verlangen, BWV 727
[4] Wie schön leuchtet der Morgenstern, BWV 739
Wilhelm Friedemann Bach (1710-1784)
[5] Triple Fuge in F major
Carl Philipp Emanuel Bach (1714-1788)
[6]-[8] Sonata VI in G minor
Johann Ludwig Krebs (1713-1780)
[9] Fugue in B major on the name B-A-C-H
[10] Trio in E flat major
[11] Freu dich sehr, o meine Seele
Johann Christian Kittel (1732-1809)
[12] Fantasie-Praeludium V in D major
Johann Gottfried Müthel (1728-1788)
[13] Praeludium in C major for Organ Pedal solo
[14] Herzlich tut mich verlangen
[15] Fantasie in G minor
Исполнители:
Bruno Oberhammer organ

Лог создания рипа

Exact Audio Copy V1.0 beta 3 from 29. August 2011
EAC extraction logfile from 27. May 2015, 1:30
Bruno Oberhammer / Aus Johann Sebastian Bachs Componirstube
Used drive : HL-DT-STDVDRAM GU70N Adapter: 0 ID: 0
Read mode : SecureUtilize accurate stream : YesDefeat audio cache : YesMake use of C2 pointers : No
Read offset correction : 48Overread into Lead-In and Lead-Out : NoFill up missing offset samples with silence : YesDelete leading and trailing silent blocks : NoNull samples used in CRC calculations : YesUsed interface : Native Win32 interface for Win NT & 2000
Used output format : User Defined EncoderSelected bitrate : 128 kBit/sQuality : HighAdd ID3 tag : NoCommand line compressor : C:\Program Files (x86)\Exact Audio Copy\Flac\flac.exeAdditional command line options : -V -8 -T "Date=%year%" -T "Genre=%genre%" %source%
TOC of the extracted CD
Track | Start | Length | Start sector | End sector --------------------------------------------------------- 1 | 0:00.00 | 13:29.21 | 0 | 60695 2 | 13:29.21 | 2:28.12 | 60696 | 71807 3 | 15:57.33 | 2:32.14 | 71808 | 83221 4 | 18:29.47 | 5:07.53 | 83222 | 106299 5 | 23:37.25 | 4:33.25 | 106300 | 126799 6 | 28:10.50 | 4:46.53 | 126800 | 148302 7 | 32:57.28 | 3:56.32 | 148303 | 166034 8 | 36:53.60 | 5:21.18 | 166035 | 190127 9 | 42:15.03 | 4:14.72 | 190128 | 209249 10 | 46:30.00 | 5:23.50 | 209250 | 233524 11 | 51:53.50 | 4:52.31 | 233525 | 255455 12 | 56:46.06 | 3:05.66 | 255456 | 269396 13 | 59:51.72 | 4:00.15 | 269397 | 287411 14 | 63:52.12 | 5:02.71 | 287412 | 310132 15 | 68:55.08 | 6:23.13 | 310133 | 338870
Range status and errors
Selected range
Filename C:\temp\Aus Johann Sebastian Bachs Componirstube\Aus Johann Sebastian Bachs Componirstube.wav
Peak level 92.8 % Extraction speed 2.2 X Range quality 100.0 % Test CRC 3B9C6817 Copy CRC 3B9C6817 Copy OK
No errors occurred
AccurateRip summary
Track 1 not present in databaseTrack 2 not present in databaseTrack 3 not present in databaseTrack 4 not present in databaseTrack 5 not present in databaseTrack 6 not present in databaseTrack 7 not present in databaseTrack 8 not present in databaseTrack 9 not present in databaseTrack 10 not present in databaseTrack 11 not present in databaseTrack 12 not present in databaseTrack 13 not present in databaseTrack 14 not present in databaseTrack 15 not present in database
None of the tracks are present in the AccurateRip database
End of status report
==== Log checksum 2523C3C2FDACF8E5F316255495AE70DB7812479367256A56AE9077CF82A9D910 ====



Показать сообщения:    

Текущее время: 09-Дек 16:35

Часовой пояс: UTC + 3


Вы не можете начинать темы
Вы не можете отвечать на сообщения
Вы не можете редактировать свои сообщения
Вы не можете удалять свои сообщения
Вы не можете голосовать в опросах
Вы не можете прикреплять файлы к сообщениям
Вы не можете скачивать файлы