(Classical Guitar) Paulo Bellinati - Serenata - Choros & waltzes of Brazil - 1993, FLAC (image+.cue) lossless


 

[Цитировать]

Paulo Bellinati - Serenata ~ Choros & waltzes of Brazil
Жанр: Classical Guitar
Страна-производитель диска: USA
Год издания диска: 1993
Издатель (лейбл): GSP
Номер по каталогу: GSP 1005CD
Аудиокодек: FLAC
Тип рипа: image+.cue
Битрейт аудио: lossless
Продолжительность: 44:03
Источник: собственный рип
Наличие сканов в содержимом раздачи: нет
Треклист:
01. Choro Sereno - 3:09
02. Um Amor de Valsa - 3:06
03. Choro Sapeca - 2:24
04. Luiza - 2:31
05. Garoto Choro - 2:57
Brasiliana No. 13:
06. Valsa - 3:10
07. Choro - 2:26
08. Valsa Brilhante - 5:58
Suite Contatos:
09. Cadencia - 1:39
10. Contatos - 3:14
11. Serenata - 2:17
12. Choro para Metronomo - 2:44
13. Se Ela Perguntar - 2:49
14. Noite de Lua - 3:29
15. Bem Rebolado Choro No. 8 - 2:10
Исполнители:
Paulo Bellinati ~ classical guitar
Доп. информация: Composers: Paulo Bellinati: 1,2,3,8,9,10; Antonio Carlos Jobim: 4,5; Radames Chattali: 6,7;
Laurindo Almeida: 11; Baden Powell: 12; Dilermando Reis: 13,14; Armando Neves: 15;
Arrangement Paulo Bellinati: 4,5,12,13,14,15

Лог создания рипа

Exact Audio Copy V1.0 beta 6 from 9. April 2015
EAC extraction logfile from 10. June 2015, 0:11
Paulo Bellinati / Serenata
Used drive : SlimtypeDVD A DA8A5SH Adapter: 1 ID: 0
Read mode : SecureUtilize accurate stream : YesDefeat audio cache : YesMake use of C2 pointers : No
Read offset correction : 6Overread into Lead-In and Lead-Out : NoFill up missing offset samples with silence : YesDelete leading and trailing silent blocks : NoNull samples used in CRC calculations : YesUsed interface : Native Win32 interface for Win NT & 2000
Used output format : User Defined EncoderSelected bitrate : 896 kBit/sQuality : HighAdd ID3 tag : YesCommand line compressor : C:\Program Files (x86)\Exact Audio Copy\Flac\flac.exeAdditional command line options : -V -8 %source%
TOC of the extracted CD
Track | Start | Length | Start sector | End sector --------------------------------------------------------- 1 | 0:00.00 | 3:08.40 | 0 | 14139 2 | 3:08.40 | 3:05.60 | 14140 | 28074 3 | 6:14.25 | 2:23.40 | 28075 | 38839 4 | 8:37.65 | 2:31.10 | 38840 | 50174 5 | 11:09.00 | 2:57.20 | 50175 | 63469 6 | 14:06.20 | 3:09.47 | 63470 | 77691 7 | 17:15.67 | 2:25.68 | 77692 | 88634 8 | 19:41.60 | 5:57.72 | 88635 | 115481 9 | 25:39.57 | 1:39.35 | 115482 | 122941 10 | 27:19.17 | 3:13.38 | 122942 | 137454 11 | 30:32.55 | 2:17.25 | 137455 | 147754 12 | 32:50.05 | 2:43.52 | 147755 | 160031 13 | 35:33.57 | 2:48.73 | 160032 | 172704 14 | 38:22.55 | 3:29.32 | 172705 | 188411 15 | 41:52.12 | 2:10.33 | 188412 | 198194
Range status and errors
Selected range
Filename D:\#Музыка\Paulo Bellinati-Serenata'93\Paulo Bellinati - Serenata.wav
Peak level 100.0 % Extraction speed 4.2 X Range quality 100.0 % Test CRC 111741FE Copy CRC 111741FE Copy OK
No errors occurred
End of status report
---- CUETools DB Plugin V2.1.6
[CTDB TOCID: tVfY8OJHXwDjTwhaEp2JN_0ATqo-] foundSubmit result: tVfY8OJHXwDjTwhaEp2JN_0ATqo- has been confirmedTrack | CTDB Status 1 | (1/1) Accurately ripped 2 | (1/1) Accurately ripped 3 | (1/1) Accurately ripped 4 | (1/1) Accurately ripped 5 | (1/1) Accurately ripped 6 | (1/1) Accurately ripped 7 | (1/1) Accurately ripped 8 | (1/1) Accurately ripped 9 | (1/1) Accurately ripped 10 | (1/1) Accurately ripped 11 | (1/1) Accurately ripped 12 | (1/1) Accurately ripped 13 | (1/1) Accurately ripped 14 | (1/1) Accurately ripped 15 | (1/1) Accurately ripped
==== Log checksum D967D28267D35C4A71883B06EEFAFA65885A5908C227047C54C152E0955931F7 ====

Лог проверки качества

-----------------------
DON'T MODIFY THIS FILE
-----------------------
PERFORMER: auCDtect Task Manager, ver. 1.6.0 RC1 build 1.6.0.1Copyright (c) 2008-2010 y-soft. All rights reservedhttp://y-soft.org
ANALYZER: auCDtect: CD records authenticity detector, version 0.8.2Copyright (c) 2004 Oleg Berngardt. All rights reserved.Copyright (c) 2004 Alexander Djourik. All rights reserved.
FILE: Paulo Bellinati - Serenata.flac Size: 190281897 Hash: 8AA4A5545CB9499907CECD4F6A9010ED Accuracy: -m0 Conclusion: CDDA 100% Signature: 85607280972668C70A9D2C51E5579162FE4445CF

Об исполнителе


Paulo Bellinati (b. São Paulo, 1950) is a classical guitarist from Brazil. He studied classical guitar with Isais Savio and graduated from the Conservatório Dramático e Musical de São Paulo. Bellinati is particularly well known for three of his compositions, 'Jongo', 'Um Amor De Valsa', and 'Baião de Gude'.
Bellinati's active international career has taken him to Europe, Asia, and the Americas. Besides performing solo concerts and giving masterclasses in many international guitar festivals, he tours with American bassist Steve Swallow, Brazilian singer Mónica Salmaso, Brazilian flutist Antonio Carrasqueira, and many top European musicians. In 1994, he won the Prémio Sharp, Brazil's equivalent of a Grammy, for arranging the selections on Gal Costa's CD 'O Sorriso do Gato de Alice'.
In addition to being a performer and arranger, Bellinati is also a respected musical scholar. He rediscovered, transcribed, and recorded the music of the great Brazilian guitarist-composer Anibal Augusto Sardinha (Garoto). His landmark recording, 'The Guitar Works of Garoto', and two-volume edition of Garoto's works have received international critical acclaim and recognition for their significance._____________________________________________________________________яндекс перевод:
Пауло Bellinati (б. Сан-Паулу, 1950) - классический гитарист из Бразилии. Он изучал классическую гитару с Isais Савио и окончил Conservatório Dramático e Musical de São Paulo. Особенно хорошо известны три композиции Bellinati , "Jongo", "Um Amor De Valsa", и "Baião de Gude".
Активная Международная карьера Пауло Bellinati проходила в Европе, Азии и Америке. Помимо выступлений с сольными концертами он дает мастер-классы на многих международных гитарных фестивалях, гастролирует с американским басистом Стивом Swallow, бразильской певицей Моникой Salmaso, Бразильским флейтистом Антонио Carrasqueira, и многиими лучшими европейскими музыкантами. В 1994 году он выиграл Prémio Sharp, эквивалент "Грэмми" в Бразилии.
В дополнение этому, исполнитель и аранжировщик, Пауло Bellinati уважаем музыкальными учеными. Он заново переписал, и записал музыку великого бразильского гитариста-композитора Анибал Аугусто Sardinha (Garoto). Его эпохальная запись произведения на гитаре "Garoto", и двухтомник произведения "Garoto" получили международное признание критиков и признание их значимости.



Показать сообщения:    

Текущее время: 06-Дек 20:57

Часовой пояс: UTC + 3


Вы не можете начинать темы
Вы не можете отвечать на сообщения
Вы не можете редактировать свои сообщения
Вы не можете удалять свои сообщения
Вы не можете голосовать в опросах
Вы не можете прикреплять файлы к сообщениям
Вы не можете скачивать файлы