(Classical Guitar) Filomena Moretti – J.S.Bach vol. II - 2008, FLAC (image+.cue) lossless


 

[Цитировать]

Johann Sebastian Bach vol. II Filomena Moretti
Жанр: Classical Guitar
Страна-производитель диска: France
Год издания диска: 2008
Издатель (лейбл): Transart
Номер по каталогу: TR 147
Дата записи: 2005
Аудиокодек: FLAC
Тип рипа: image+.cue
Битрейт аудио: lossless
Продолжительность: 1:09:03
Источник: собственный рип
Наличие сканов в содержимом раздачи: нет
Треклист:
01. Prelude Pour Luth In C Minor, BWV 999 - 1:29
Suite In C Minor, BWV 997
02. Prelude - 3:18
03. Fuga - 7:27
04. Sarabanda - 4:54
05. Giga - 2:51
06. Double - 3:25
Sonata In G Minor, BWV 1001
07. Adagio - 3:52
08. Fuga En Sol Minor, BWV 1000 - 5:52
09. Siciliano - 2:43
10. Presto - 4:16
Partita In D Minor, BWV 1004
11. Allemanda - 4:44
12. Corente - 3:06
13. Sarabanda - 3:42
14. Giga - 4:42
15. Ciaccona - 12:42
Исполнители: Filomena Moretti ~ classical guitar
Доп. информация: Transcription for Guitar Ruggero Chiesa: 1 - 6
Transcription for Guitar Filomena Moretti: 7 - 15

Лог создания рипа

Exact Audio Copy V1.0 beta 6 from 9. April 2015
EAC extraction logfile from 11. June 2015, 4:27
Filomena Moretti / J.S.Bach (vol 2)
Used drive : SlimtypeDVD A DA8A5SH Adapter: 1 ID: 0
Read mode : SecureUtilize accurate stream : YesDefeat audio cache : YesMake use of C2 pointers : No
Read offset correction : 6Overread into Lead-In and Lead-Out : NoFill up missing offset samples with silence : YesDelete leading and trailing silent blocks : NoNull samples used in CRC calculations : YesUsed interface : Native Win32 interface for Win NT & 2000
Used output format : User Defined EncoderSelected bitrate : 896 kBit/sQuality : HighAdd ID3 tag : YesCommand line compressor : C:\Program Files (x86)\Exact Audio Copy\Flac\flac.exeAdditional command line options : -V -8 %source%
TOC of the extracted CD
Track | Start | Length | Start sector | End sector --------------------------------------------------------- 1 | 0:00.00 | 1:28.40 | 0 | 6639 2 | 1:28.40 | 3:17.65 | 6640 | 21479 3 | 4:46.30 | 7:26.60 | 21480 | 54989 4 | 12:13.15 | 4:53.46 | 54990 | 77010 5 | 17:06.61 | 2:51.20 | 77011 | 89855 6 | 19:58.06 | 3:25.23 | 89856 | 105253 7 | 23:23.29 | 3:52.11 | 105254 | 122664 8 | 27:15.40 | 5:51.71 | 122665 | 149060 9 | 33:07.36 | 2:43.33 | 149061 | 161318 10 | 35:50.69 | 4:16.33 | 161319 | 180551 11 | 40:07.27 | 4:44.03 | 180552 | 201854 12 | 44:51.30 | 3:05.43 | 201855 | 215772 13 | 47:56.73 | 3:41.53 | 215773 | 232400 14 | 51:38.51 | 4:41.59 | 232401 | 253534 15 | 56:20.35 | 12:42.54 | 253535 | 310738
Range status and errors
Selected range
Filename D:\#Музыка\Filomena Moretti-J.S.Bach (vol 2)\Filomena Moretti - J.S.Bach (vol 2).wav
Peak level 96.6 % Extraction speed 4.6 X Range quality 100.0 % Test CRC 8212DC7B Copy CRC 8212DC7B Copy OK
No errors occurred
End of status report
---- CUETools DB Plugin V2.1.6
[CTDB TOCID: 5HEdHqSGwOBbvefEg2OFPx2DbmA-] foundSubmit result: 5HEdHqSGwOBbvefEg2OFPx2DbmA- has been confirmedTrack | CTDB Status 1 | (3/3) Accurately ripped 2 | (3/3) Accurately ripped 3 | (3/3) Accurately ripped 4 | (3/3) Accurately ripped 5 | (3/3) Accurately ripped 6 | (3/3) Accurately ripped 7 | (3/3) Accurately ripped 8 | (3/3) Accurately ripped 9 | (3/3) Accurately ripped 10 | (3/3) Accurately ripped 11 | (3/3) Accurately ripped 12 | (3/3) Accurately ripped 13 | (3/3) Accurately ripped 14 | (3/3) Accurately ripped 15 | (3/3) Accurately ripped
==== Log checksum 10A7C55C168C107BD91CABBA7EA0CA8CD80748EDA99531EC7D0A966D26D447AE ====
Лог проверки качества
-----------------------
DON'T MODIFY THIS FILE
-----------------------
PERFORMER: auCDtect Task Manager, ver. 1.6.0 RC1 build 1.6.0.1Copyright (c) 2008-2010 y-soft. All rights reservedhttp://y-soft.org
ANALYZER: auCDtect: CD records authenticity detector, version 0.8.2Copyright (c) 2004 Oleg Berngardt. All rights reserved.Copyright (c) 2004 Alexander Djourik. All rights reserved.
FILE: Filomena Moretti - J.S.Bach (vol 2).flac Size: 285279445 Hash: 9505FDED9712CD0E5866076C0FD386C6 Accuracy: -m0 Conclusion: MPEG 100% Signature: B288A04D78A5C9CCC2C67252E433C665B5BD80EE
СМОТРЕТЬ СКРИНШОТ СПЕКТРА ЧАСТОТ + АЧХ =>> ДИСК СООТВЕТСТВУЕТ качеству CD !!!

Скриншот спектра частот

Об исполнителе


Филомена Моретти - итальянская гитаристка. Родилась в 1973 году в г. Сассари (Сардиния, Италия), там же закончила консерваторию. Лауреат нескольких международных конкурсов. Выступает как в Италии, так и за рубежом: на фестивалях, конкурсах, концертах по приглашению крупнейших музыкальных организаций. Играла в лучших концертных залах в Гамбурге, Вольфсбурге, Киле, Берлине, Варшаве, Кракове, Милане, Турине, Париже и др. 
______________________________________________________________________________
Filomena Moretti - Italian guitarist. She was born in 1973 in Sassari (Sardinia, Italy), where she graduated from the Conservatory. The winner of several international competitions. Performs both in Italy and abroad: festivals, competitions, concerts at the invitation of the largest musical organizations. She played in the best concert halls in Hamburg, Wolfsburg, Kiel, Berlin, Warsaw, Krakow, Milan, Turin, Paris, etc.



Показать сообщения:    

Текущее время: 11-Дек 09:11

Часовой пояс: UTC + 3


Вы не можете начинать темы
Вы не можете отвечать на сообщения
Вы не можете редактировать свои сообщения
Вы не можете удалять свои сообщения
Вы не можете голосовать в опросах
Вы не можете прикреплять файлы к сообщениям
Вы не можете скачивать файлы