(Classical) Wolfgang Amadeus Mozart - Piano Sonatas Nos.10-12 - Noriko Ogawa - 2012, FLAC (image+.cue) lossless


 

[Цитировать]

Wolfgang Amadeus Mozart - Piano Sonatas Nos.10-12 - Noriko Ogawa
Жанр: Classical
Страна-производитель диска: Sweden
Год издания диска: 2012
Издатель (лейбл): BIS
Номер по каталогу: BIS-SACD-1985
Дата записи: 2011
Аудиокодек: FLAC
Тип рипа: image+.cue
Битрейт аудио: lossless
Продолжительность: 76:00
Источник: собственный рип
Наличие сканов в содержимом раздачи: да
Треклист:
Wolfgang Amadeus Mozart (1756–91)
[1]-[3] Piano Sonata No.10 in C major, K 330
[4]-[6] Piano Sonata No.11 in A major, K 331
[7]-[9] Piano Sonata No. 12 in F major, K 332
У него сегодня день рождения. Родился ровно 260 лет назад.
Исполнители:
Noriko Ogawa piano

Лог создания рипа

Exact Audio Copy V1.0 beta 3 from 29. August 2011
EAC extraction logfile from 7. May 2015, 21:32
Noriko Ogawa / Mozart - Piano Sonatas Nos.10-12
Used drive : HL-DT-STDVDRAM GU70N Adapter: 0 ID: 0
Read mode : SecureUtilize accurate stream : YesDefeat audio cache : YesMake use of C2 pointers : No
Read offset correction : 48Overread into Lead-In and Lead-Out : NoFill up missing offset samples with silence : YesDelete leading and trailing silent blocks : NoNull samples used in CRC calculations : YesUsed interface : Native Win32 interface for Win NT & 2000
Used output format : User Defined EncoderSelected bitrate : 128 kBit/sQuality : HighAdd ID3 tag : NoCommand line compressor : C:\Program Files (x86)\Exact Audio Copy\Flac\flac.exeAdditional command line options : -V -8 -T "Date=%year%" -T "Genre=%genre%" %source%
TOC of the extracted CD
Track | Start | Length | Start sector | End sector --------------------------------------------------------- 1 | 0:00.00 | 9:51.56 | 0 | 44380 2 | 9:51.56 | 6:29.73 | 44381 | 73628 3 | 16:21.54 | 9:01.66 | 73629 | 114269 4 | 25:23.45 | 14:33.71 | 114270 | 179815 5 | 39:57.41 | 6:19.27 | 179816 | 208267 6 | 46:16.68 | 3:52.55 | 208268 | 225722 7 | 50:09.48 | 10:28.23 | 225723 | 272845 8 | 60:37.71 | 4:24.00 | 272846 | 292645 9 | 65:01.71 | 10:58.10 | 292646 | 342005
Range status and errors
Selected range
Filename C:\temp\BIS-SACD-1985 - Mozart - Piano Sonatas Nos.10-12 - Noriko Ogawa\Mozart - Piano Sonatas Nos.10-12.wav
Peak level 97.7 % Extraction speed 5.5 X Range quality 100.0 % Test CRC 26031B1B Copy CRC 26031B1B Copy OK
No errors occurred
AccurateRip summary
Track 1 accurately ripped (confidence 1) [EC88028C] (AR v2)Track 2 accurately ripped (confidence 1) [4BAAD969] (AR v2)Track 3 accurately ripped (confidence 1) [C524D6A9] (AR v2)Track 4 accurately ripped (confidence 1) [8C43B873] (AR v2)Track 5 accurately ripped (confidence 1) [E52158BB] (AR v2)Track 6 accurately ripped (confidence 1) [1590366D] (AR v2)Track 7 accurately ripped (confidence 1) [E0526047] (AR v2)Track 8 accurately ripped (confidence 1) [5DA99F51] (AR v2)Track 9 accurately ripped (confidence 1) [35D643A1] (AR v2)
All tracks accurately ripped
End of status report
==== Log checksum 6DAE65050B8ED7AB7DA9D93C0EA758C0CF629906D0C2DD1079A07B252A303208 ====



Показать сообщения:    

Текущее время: 06-Дек 22:48

Часовой пояс: UTC + 3


Вы не можете начинать темы
Вы не можете отвечать на сообщения
Вы не можете редактировать свои сообщения
Вы не можете удалять свои сообщения
Вы не можете голосовать в опросах
Вы не можете прикреплять файлы к сообщениям
Вы не можете скачивать файлы