(Classical, Piano) Aki Takahashi - The Best of Satie (Gymnopedies, Gnossiennes, Preludes, Heures seculaires et instantanees, Embryons desseches, etc.) - 1987, FLAC (tracks+.cue), lossless


 

[Цитировать]

Aki Takahashi - The Best of Satie
Жанр: Classical, Piano
Страна-производитель диска: Япония
Год издания диска: 1987
Издатель (лейбл): Eastworld
Номер по каталогу: CC30-9038
Аудиокодек: FLAC
Тип рипа: tracks+.cue
Битрейт аудио: lossless
Продолжительность: 1:06:41
Источник (релизер): what.cd
Наличие сканов в содержимом раздачи: front
Треклист:
Erik Satie (1866-1925)
3 Gymnopedies
01. 1. Lent et douloureux (3:17)
02. 2. Lent et triste (2:35)
03. 3. Lent et grave (2:29)
6 Gnossiennes
04. No.1 (4:02)
05. No.2 (2:17)
06. No.3 (2:54)
07. No.4 (3:22)
08. No.5 (3:32)
09. No.6 (1:59)
4 Preludes
10. 1. Fete donnee par des chevaliers normands en l'honneur d'une jeune demoiselle (3:13)
11. 2. Prelude d'Eginhard (1:37)
12. 3. Premier prelude du Nazareen (4:42)
13. 4. Deuxieme prelude du Nazareen (3:30)
Heures seculaires et instantanees
14. 1. Obstacles venimeux (1:36)
15. 2. Crepuscule matinal (0:52)
16. 3. Affolements granitiques (0:49)
17. Le poisson reveur (6:11)
3 Airs a faire fuir (from "Pieces froides")
18. 1. D'une maniere tres particuliere (2:47)
19. 2. Modestemente (1:09)
20. 3. S'inviter (2:53)
Embryons desseches
21. 1. D'Holothurie (2:05)
22. 2. D'Edriophthalma (2:17)
23. 3. De Podophthalma (1:38)
24. Je te veux (4:55)
Исполнители:
Aki Takahashi - piano

Лог создания рипа

Exact Audio Copy V1.0 beta 3 from 29. August 2011
EAC extraction logfile from 16. January 2012, 14:53
高橋アキ / ベスト・オブ・サティ
Used drive : TSSTcorpDVD+-RW TS-U633F Adapter: 1 ID: 0
Read mode : SecureUtilize accurate stream : YesDefeat audio cache : YesMake use of C2 pointers : No
Read offset correction : 6Overread into Lead-In and Lead-Out : NoFill up missing offset samples with silence : YesDelete leading and trailing silent blocks : NoNull samples used in CRC calculations : YesUsed interface : Installed external ASPI interfaceGap handling : Appended to previous track
Used output format : User Defined EncoderSelected bitrate : 1024 kBit/sQuality : HighAdd ID3 tag : NoCommand line compressor : C:\Program Files\Exact Audio Copy\Flac\flac.exeAdditional command line options : -8 -V -T "ARTIST=%artist%" -T "TITLE=%title%" -T "ALBUM=%albumtitle%" -T "DATE=%year%" -T "TRACKNUMBER=%tracknr%" -T "GENRE=%genre%" -T "PERFORMER=%albuminterpret%" -T "COMPOSER=%composer%" %haslyrics%--tag-from-file=LYRICS="%lyricsfile%"%haslyrics% -T "ALBUMARTIST=%albumartist%" -T "DISCNUMBER=%cdnumber%" -T "TOTALDISCS=%totalcds%" -T "TOTALTRACKS=%numtracks%" -T "COMMENT=%comment%" %source% -o %dest%
TOC of the extracted CD
Track | Start | Length | Start sector | End sector --------------------------------------------------------- 1 | 0:00.00 | 3:17.07 | 0 | 14781 2 | 3:17.07 | 2:34.43 | 14782 | 26374 3 | 5:51.50 | 2:28.65 | 26375 | 37539 4 | 8:20.40 | 4:02.10 | 37540 | 55699 5 | 12:22.50 | 2:17.12 | 55700 | 65986 6 | 14:39.62 | 2:53.68 | 65987 | 79029 7 | 17:33.55 | 3:22.25 | 79030 | 94204 8 | 20:56.05 | 3:31.62 | 94205 | 110091 9 | 24:27.67 | 1:59.18 | 110092 | 119034 10 | 26:27.10 | 3:13.05 | 119035 | 133514 11 | 29:40.15 | 1:37.25 | 133515 | 140814 12 | 31:17.40 | 4:41.60 | 140815 | 161949 13 | 35:59.25 | 3:29.65 | 161950 | 177689 14 | 39:29.15 | 1:36.10 | 177690 | 184899 15 | 41:05.25 | 0:52.12 | 184900 | 188811 16 | 41:57.37 | 0:48.45 | 188812 | 192456 17 | 42:46.07 | 6:11.25 | 192457 | 220306 18 | 48:57.32 | 2:46.40 | 220307 | 232796 19 | 51:43.72 | 1:08.45 | 232797 | 237941 20 | 52:52.42 | 2:52.73 | 237942 | 250914 21 | 55:45.40 | 2:05.17 | 250915 | 260306 22 | 57:50.57 | 2:17.28 | 260307 | 270609 23 | 60:08.10 | 1:38.15 | 270610 | 277974 24 | 61:46.25 | 4:55.10 | 277975 | 300109
Track 1
Filename H:\flac\エリック・サティ - ベスト・オブ・サティ - 高橋アキ - 1988 (FLAC)\01 - 3つのジムノペディ -1曲.wav
Pre-gap length 0:00:02.00
Peak level 15.7 % Extraction speed 1.2 X Track quality 100.0 % Test CRC 0CD0DDD6 Copy CRC 0CD0DDD6 Cannot be verified as accurate (confidence 1) [6851FFFB], AccurateRip returned [21123A48] (AR v2) Copy OK
Track 2
Filename H:\flac\エリック・サティ - ベスト・オブ・サティ - 高橋アキ - 1988 (FLAC)\02 - 3つのジムノペディ -2曲.wav
Peak level 17.6 % Extraction speed 1.2 X Track quality 100.0 % Test CRC CFEFA93E Copy CRC CFEFA93E Cannot be verified as accurate (confidence 1) [44774A17], AccurateRip returned [AA11CBA1] (AR v2) Copy OK
Track 3
Filename H:\flac\エリック・サティ - ベスト・オブ・サティ - 高橋アキ - 1988 (FLAC)\03 - 3つのジムノペディ -3曲.wav
Peak level 12.9 % Extraction speed 1.3 X Track quality 100.0 % Test CRC 9591633F Copy CRC 9591633F Cannot be verified as accurate (confidence 1) [89FAE3ED], AccurateRip returned [32E8083A] (AR v2) Copy OK
Track 4
Filename H:\flac\エリック・サティ - ベスト・オブ・サティ - 高橋アキ - 1988 (FLAC)\04 - グノシェンヌ -1曲.wav
Pre-gap length 0:00:06.64
Peak level 18.9 % Extraction speed 1.5 X Track quality 100.0 % Test CRC 78FB07AB Copy CRC 78FB07AB Cannot be verified as accurate (confidence 1) [35D89352], AccurateRip returned [89B2624D] (AR v2) Copy OK
Track 5
Filename H:\flac\エリック・サティ - ベスト・オブ・サティ - 高橋アキ - 1988 (FLAC)\05 - グノシェンヌ -2曲.wav
Peak level 19.1 % Extraction speed 1.4 X Track quality 100.0 % Test CRC 451B5BF5 Copy CRC 451B5BF5 Cannot be verified as accurate (confidence 1) [79D210E7], AccurateRip returned [2AAA47BC] (AR v2) Copy OK
Track 6
Filename H:\flac\エリック・サティ - ベスト・オブ・サティ - 高橋アキ - 1988 (FLAC)\06 - グノシェンヌ -3曲.wav
Peak level 15.8 % Extraction speed 1.6 X Track quality 100.0 % Test CRC 537ADAD3 Copy CRC 537ADAD3 Cannot be verified as accurate (confidence 1) [E5D90D79], AccurateRip returned [403D36D8] (AR v2) Copy OK
Track 7
Filename H:\flac\エリック・サティ - ベスト・オブ・サティ - 高橋アキ - 1988 (FLAC)\07 - グノシェンヌ -4曲.wav
Peak level 17.3 % Extraction speed 1.7 X Track quality 100.0 % Test CRC 67EE91C7 Copy CRC 67EE91C7 Cannot be verified as accurate (confidence 1) [7ABE620F], AccurateRip returned [25B088A9] (AR v2) Copy OK
Track 8
Filename H:\flac\エリック・サティ - ベスト・オブ・サティ - 高橋アキ - 1988 (FLAC)\08 - グノシェンヌ -5曲.wav
Peak level 27.9 % Extraction speed 1.6 X Track quality 99.9 % Test CRC 97CC3067 Copy CRC 97CC3067 Cannot be verified as accurate (confidence 1) [A3BEDEA8], AccurateRip returned [1A08A214] (AR v2) Copy OK
Track 9
Filename H:\flac\エリック・サティ - ベスト・オブ・サティ - 高橋アキ - 1988 (FLAC)\09 - グノシェンヌ -6曲.wav
Peak level 25.0 % Extraction speed 1.7 X Track quality 100.0 % Test CRC 33096B99 Copy CRC 33096B99 Cannot be verified as accurate (confidence 1) [9274A54F], AccurateRip returned [C7FC0EFE] (AR v2) Copy OK
Track 10
Filename H:\flac\エリック・サティ - ベスト・オブ・サティ - 高橋アキ - 1988 (FLAC)\10 - 4つのプレリュード -1曲.wav
Pre-gap length 0:00:05.90
Peak level 32.7 % Extraction speed 1.9 X Track quality 100.0 % Test CRC 479F573C Copy CRC 479F573C Cannot be verified as accurate (confidence 1) [72AA1672], AccurateRip returned [51342617] (AR v2) Copy OK
Track 11
Filename H:\flac\エリック・サティ - ベスト・オブ・サティ - 高橋アキ - 1988 (FLAC)\11 - 4つのプレリュード -2曲.wav
Peak level 38.8 % Extraction speed 1.7 X Track quality 100.0 % Test CRC F62B8A13 Copy CRC F62B8A13 Cannot be verified as accurate (confidence 1) [FA7B86B9], AccurateRip returned [A57B475C] (AR v2) Copy OK
Track 12
Filename H:\flac\エリック・サティ - ベスト・オブ・サティ - 高橋アキ - 1988 (FLAC)\12 - 4つのプレリュード -3曲.wav
Peak level 31.6 % Extraction speed 2.1 X Track quality 100.0 % Test CRC 2C799239 Copy CRC 2C799239 Cannot be verified as accurate (confidence 1) [11C23DD5], AccurateRip returned [4EC49710] (AR v2) Copy OK
Track 13
Filename H:\flac\エリック・サティ - ベスト・オブ・サティ - 高橋アキ - 1988 (FLAC)\13 - 4つのプレリュード -4曲.wav
Peak level 32.3 % Extraction speed 2.1 X Track quality 100.0 % Test CRC 2BACE788 Copy CRC 2BACE788 Cannot be verified as accurate (confidence 1) [C9621005], AccurateRip returned [DB29C460] (AR v2) Copy OK
Track 14
Filename H:\flac\エリック・サティ - ベスト・オブ・サティ - 高橋アキ - 1988 (FLAC)\14 - 世紀ごとの時間と瞬間の時間-有害な邪魔物.wav
Pre-gap length 0:00:07.24
Peak level 57.6 % Extraction speed 1.8 X Track quality 100.0 % Test CRC 25E2760F Copy CRC 25E2760F Cannot be verified as accurate (confidence 1) [3D5F9D1E], AccurateRip returned [4FBB5D0C] (AR v2) Copy OK
Track 15
Filename H:\flac\エリック・サティ - ベスト・オブ・サティ - 高橋アキ - 1988 (FLAC)\15 - 世紀ごとの時間と瞬間の時間-(真昼の)朝の黄昏.wav
Peak level 61.2 % Extraction speed 1.4 X Track quality 100.0 % Test CRC C7C6E5DE Copy CRC C7C6E5DE Cannot be verified as accurate (confidence 1) [B99513F8], AccurateRip returned [72D3A67F] (AR v2) Copy OK
Track 16
Filename H:\flac\エリック・サティ - ベスト・オブ・サティ - 高橋アキ - 1988 (FLAC)\16 - 世紀ごとの時間と瞬間の時間-花崗岩的な狂乱.wav
Peak level 52.0 % Extraction speed 1.4 X Track quality 100.0 % Test CRC 4205B92A Copy CRC 4205B92A Cannot be verified as accurate (confidence 1) [A11FDF4D], AccurateRip returned [EB4E51E8] (AR v2) Copy OK
Track 17
Filename H:\flac\エリック・サティ - ベスト・オブ・サティ - 高橋アキ - 1988 (FLAC)\17 - 夢みる魚.wav
Pre-gap length 0:00:06.33
Peak level 57.8 % Extraction speed 2.4 X Track quality 100.0 % Test CRC 9AC00F9E Copy CRC 9AC00F9E Cannot be verified as accurate (confidence 1) [103E63B1], AccurateRip returned [DFFAE279] (AR v2) Copy OK
Track 18
Filename H:\flac\エリック・サティ - ベスト・オブ・サティ - 高橋アキ - 1988 (FLAC)\18 - 冷たい小品集*逃げだせる歌-1曲.wav
Pre-gap length 0:00:06.20
Peak level 59.7 % Extraction speed 2.2 X Track quality 100.0 % Test CRC 42B26C14 Copy CRC 42B26C14 Cannot be verified as accurate (confidence 1) [AF3C90C9], AccurateRip returned [A04390DC] (AR v2) Copy OK
Track 19
Filename H:\flac\エリック・サティ - ベスト・オブ・サティ - 高橋アキ - 1988 (FLAC)\19 - 冷たい小品集*逃げだせる歌-2曲.wav
Peak level 37.1 % Extraction speed 1.7 X Track quality 100.0 % Test CRC 7AED3EFC Copy CRC 7AED3EFC Cannot be verified as accurate (confidence 1) [DB83C541], AccurateRip returned [07738051] (AR v2) Copy OK
Track 20
Filename H:\flac\エリック・サティ - ベスト・オブ・サティ - 高橋アキ - 1988 (FLAC)\20 - 冷たい小品集*逃げだせる歌-3曲.wav
Peak level 55.0 % Extraction speed 1.9 X Track quality 99.9 % Test CRC AF704D50 Copy CRC AF704D50 Cannot be verified as accurate (confidence 1) [C2EF2BF9], AccurateRip returned [CC786CCC] (AR v2) Copy OK
Track 21
Filename H:\flac\エリック・サティ - ベスト・オブ・サティ - 高橋アキ - 1988 (FLAC)\21 - 乾からびた胎児-ナマコの胎児.wav
Pre-gap length 0:00:06.77
Peak level 68.9 % Extraction speed 2.2 X Track quality 100.0 % Test CRC 10F0CF72 Copy CRC 10F0CF72 Cannot be verified as accurate (confidence 1) [FBEC4931], AccurateRip returned [86E0F9E9] (AR v2) Copy OK
Track 22
Filename H:\flac\エリック・サティ - ベスト・オブ・サティ - 高橋アキ - 1988 (FLAC)\22 - 乾からびた胎児-甲殻類の胎児.wav
Peak level 57.3 % Extraction speed 2.2 X Track quality 100.0 % Test CRC 5C64254F Copy CRC 5C64254F Cannot be verified as accurate (confidence 1) [2865FE0C], AccurateRip returned [9E45920C] (AR v2) Copy OK
Track 23
Filename H:\flac\エリック・サティ - ベスト・オブ・サティ - 高橋アキ - 1988 (FLAC)\23 - 乾からびた胎児-柄眼類の胎児.wav
Peak level 71.7 % Extraction speed 2.1 X Track quality 100.0 % Test CRC 401B4E8B Copy CRC 401B4E8B Cannot be verified as accurate (confidence 1) [74BB9EDF], AccurateRip returned [C69EA05A] (AR v2) Copy OK
Track 24
Filename H:\flac\エリック・サティ - ベスト・オブ・サティ - 高橋アキ - 1988 (FLAC)\24 - ジュ・トゥ・ヴー.wav
Pre-gap length 0:00:06.40
Peak level 51.5 % Extraction speed 2.4 X Track quality 99.9 % Test CRC 9E661346 Copy CRC 9E661346 Cannot be verified as accurate (confidence 1) [79849943], AccurateRip returned [94E998E0] (AR v2) Copy OK
No tracks could be verified as accurateYou may have a different pressing from the one(s) in the database
No errors occurred
End of status report
==== Log checksum E9398798949D3D62D5D879948289F141200246CA7F85CAF1888AD085FD8F5259 ====

Содержание индексной карты (.CUE)

REM GENRE ClassicalREM DATE 1987REM DISCID 750FA118REM COMMENT "ExactAudioCopy v1.0b3"PERFORMER "Aki Takahashi"TITLE "The Best of Satie"FILE "01 - 3 Gymnopedies- 1. Lent et douloureux.wav" WAVE TRACK 01 AUDIO TITLE "3 Gymnopedies: 1. Lent et douloureux" PERFORMER "Aki Takahashi" INDEX 01 00:00:00FILE "02 - 3 Gymnopedies- 2. Lent et triste.wav" WAVE TRACK 02 AUDIO TITLE "3 Gymnopedies: 2. Lent et triste" PERFORMER "Aki Takahashi" INDEX 01 00:00:00FILE "03 - 3 Gymnopedies- 3. Lent et grave.wav" WAVE TRACK 03 AUDIO TITLE "3 Gymnopedies: 3. Lent et grave" PERFORMER "Aki Takahashi" INDEX 01 00:00:00 TRACK 04 AUDIO TITLE "6 Gnossiennes: No.1" PERFORMER "Aki Takahashi" INDEX 00 02:22:17FILE "04 - 6 Gnossiennes- No.1.wav" WAVE INDEX 01 00:00:00FILE "05 - 6 Gnossiennes- No.2.wav" WAVE TRACK 05 AUDIO TITLE "6 Gnossiennes: No.2" PERFORMER "Aki Takahashi" INDEX 01 00:00:00FILE "06 - 6 Gnossiennes- No.3.wav" WAVE TRACK 06 AUDIO TITLE "6 Gnossiennes: No.3" PERFORMER "Aki Takahashi" INDEX 01 00:00:00FILE "07 - 6 Gnossiennes- No.4.wav" WAVE TRACK 07 AUDIO TITLE "6 Gnossiennes: No.4" PERFORMER "Aki Takahashi" INDEX 01 00:00:00FILE "08 - 6 Gnossiennes- No.5.wav" WAVE TRACK 08 AUDIO TITLE "6 Gnossiennes: No.5" PERFORMER "Aki Takahashi" INDEX 01 00:00:00FILE "09 - 6 Gnossiennes- No.6.wav" WAVE TRACK 09 AUDIO TITLE "6 Gnossiennes: No.6" PERFORMER "Aki Takahashi" INDEX 01 00:00:00 TRACK 10 AUDIO TITLE "4 Preludes: 1. Fete donnee par des chevaliers normands..." PERFORMER "Aki Takahashi" INDEX 00 01:53:25FILE "10 - 4 Preludes- 1. Fete donnee par des chevaliers normands....wav" WAVE INDEX 01 00:00:00FILE "11 - 4 Preludes- 2. Prelude d'Eginhard.wav" WAVE TRACK 11 AUDIO TITLE "4 Preludes: 2. Prelude d'Eginhard" PERFORMER "Aki Takahashi" INDEX 01 00:00:00FILE "12 - 4 Preludes- 3. Premier prelude du Nazareen.wav" WAVE TRACK 12 AUDIO TITLE "4 Preludes: 3. Premier prelude du Nazareen" PERFORMER "Aki Takahashi" INDEX 01 00:00:00FILE "13 - 4 Preludes- 4. Deuxieme prelude du Nazareen.wav" WAVE TRACK 13 AUDIO TITLE "4 Preludes: 4. Deuxieme prelude du Nazareen" PERFORMER "Aki Takahashi" INDEX 01 00:00:00 TRACK 14 AUDIO TITLE "Heures seculaires et instantanees: 1. Obstacles venimeux" PERFORMER "Aki Takahashi" INDEX 00 03:22:47FILE "14 - Heures seculaires et instantanees- 1. Obstacles venimeux.wav" WAVE INDEX 01 00:00:00FILE "15 - Heures seculaires et instantanees- 2. Crepuscule matinal.wav" WAVE TRACK 15 AUDIO TITLE "Heures seculaires et instantanees: 2. Crepuscule matinal" PERFORMER "Aki Takahashi" INDEX 01 00:00:00FILE "16 - Heures seculaires et instantanees- 3. Affolements granitiques.wav" WAVE TRACK 16 AUDIO TITLE "Heures seculaires et instantanees: 3. Affolements granitiques" PERFORMER "Aki Takahashi" INDEX 01 00:00:00 TRACK 17 AUDIO TITLE "Le poisson reveur" PERFORMER "Aki Takahashi" INDEX 00 00:42:20FILE "17 - Le poisson reveur.wav" WAVE INDEX 01 00:00:00 TRACK 18 AUDIO TITLE "3 Airs a faire fuir (from 'Pieces froides'): 1. D'une maniere tres particuliere" PERFORMER "Aki Takahashi" INDEX 00 06:05:10FILE "18 - 3 Airs a faire fuir (from 'Pieces froides')- 1. D'une maniere tres particuliere.wav" WAVE INDEX 01 00:00:00FILE "19 - 3 Airs a faire fuir (from 'Pieces froides')- 2. Modestemente.wav" WAVE TRACK 19 AUDIO TITLE "3 Airs a faire fuir (from 'Pieces froides'): 2. Modestemente" PERFORMER "Aki Takahashi" INDEX 01 00:00:00FILE "20 - 3 Airs a faire fuir (from 'Pieces froides')- 3. S'inviter.wav" WAVE TRACK 20 AUDIO TITLE "3 Airs a faire fuir (from 'Pieces froides'): 3. S'inviter" PERFORMER "Aki Takahashi" INDEX 01 00:00:00 TRACK 21 AUDIO TITLE "Embryons desseches: 1. D'Holothurie" PERFORMER "Aki Takahashi" INDEX 00 02:46:15FILE "21 - Embryons desseches- 1. D'Holothurie.wav" WAVE INDEX 01 00:00:00FILE "22 - Embryons desseches- 2. D'Edriophthalma.wav" WAVE TRACK 22 AUDIO TITLE "Embryons desseches: 2. D'Edriophthalma" PERFORMER "Aki Takahashi" INDEX 01 00:00:00FILE "23 - Embryons desseches- 3. De Podophthalma.wav" WAVE TRACK 23 AUDIO TITLE "Embryons desseches: 3. De Podophthalma" PERFORMER "Aki Takahashi" INDEX 01 00:00:00 TRACK 24 AUDIO TITLE "Je te veux" PERFORMER "Aki Takahashi" INDEX 00 01:31:60FILE "24 - Je te veux.wav" WAVE INDEX 01 00:00:00

Отчет CUETools

[CUETools log; Date: 27.01.2016 18:49:10; Version: 2.1.5][CTDB TOCID: kHsUuI1EC_U6DWrfwL6gwsFaLVU-] found.Track | CTDB Status 1 | (2/2) Accurately ripped 2 | (2/2) Accurately ripped 3 | (2/2) Accurately ripped 4 | (2/2) Accurately ripped 5 | (2/2) Accurately ripped 6 | (2/2) Accurately ripped 7 | (2/2) Accurately ripped 8 | (2/2) Accurately ripped 9 | (2/2) Accurately ripped 10 | (2/2) Accurately ripped 11 | (2/2) Accurately ripped 12 | (2/2) Accurately ripped 13 | (2/2) Accurately ripped 14 | (2/2) Accurately ripped 15 | (2/2) Accurately ripped 16 | (2/2) Accurately ripped 17 | (2/2) Accurately ripped 18 | (2/2) Accurately ripped 19 | (2/2) Accurately ripped 20 | (2/2) Accurately ripped 21 | (2/2) Accurately ripped 22 | (2/2) Accurately ripped 23 | (2/2) Accurately ripped 24 | (2/2) Accurately ripped[AccurateRip ID: 003a7ff8-03ebbbc2-750fa118] found.Track [ CRC | V2 ] Status 01 [c1b99bc8|6851fffb] (0+0/1) No match 02 [bdcb9ed8|44774a17] (0+0/1) No match 03 [6f394470|89fae3ed] (0+0/1) No match 04 [aa7b5667|35d89352] (0+0/1) No match 05 [5d9dd34c|79d210e7] (0+0/1) No match 06 [5b6a3aa6|e5d90d79] (0+0/1) No match 07 [af00003e|7abe620f] (0+0/1) No match 08 [fa9036ba|a3bedea8] (0+0/1) No match 09 [d7f06fdd|9274a54f] (0+0/1) No match 10 [924f9d4d|72aa1672] (0+0/1) No match 11 [d89cf9c1|fa7b86b9] (0+0/1) No match 12 [7287adc0|11c23dd5] (0+0/1) No match 13 [3f9a056d|c9621005] (0+0/1) No match 14 [9b84e5cd|3d5f9d1e] (0+0/1) No match 15 [923b99f4|b99513f8] (0+0/1) No match 16 [7a1102cc|a11fdf4d] (0+0/1) No match 17 [a5501082|103e63b1] (0+0/1) No match 18 [886cc8f9|af3c90c9] (0+0/1) No match 19 [ae313cf5|db83c541] (0+0/1) No match 20 [f32966bc|c2ef2bf9] (0+0/1) No match 21 [53a45fe6|fbec4931] (0+0/1) No match 22 [2fd60db9|2865fe0c] (0+0/1) No match 23 [232af3f6|74bb9edf] (0+0/1) No match 24 [373b6a44|79849943] (0+0/1) No matchOffsetted by 414: 01 [21123a48] (1/1) Accurately ripped 02 [aa11cba1] (1/1) Accurately ripped 03 [32e8083a] (1/1) Accurately ripped 04 [89b2624d] (1/1) Accurately ripped 05 [2aaa47bc] (1/1) Accurately ripped 06 [403d36d8] (1/1) Accurately ripped 07 [25b088a9] (1/1) Accurately ripped 08 [1a08a214] (1/1) Accurately ripped 09 [c7fc0efe] (1/1) Accurately ripped 10 [51342617] (1/1) Accurately ripped 11 [a57b475c] (1/1) Accurately ripped 12 [4ec49710] (1/1) Accurately ripped 13 [db29c460] (1/1) Accurately ripped 14 [4fbb5d0c] (1/1) Accurately ripped 15 [72d3a67f] (1/1) Accurately ripped 16 [eb4e51e8] (1/1) Accurately ripped 17 [dffae279] (1/1) Accurately ripped 18 [a04390dc] (1/1) Accurately ripped 19 [07738051] (1/1) Accurately ripped 20 [cc786ccc] (1/1) Accurately ripped 21 [86e0f9e9] (1/1) Accurately ripped 22 [9e45920c] (1/1) Accurately ripped 23 [c69ea05a] (1/1) Accurately ripped 24 [94e998e0] (1/1) Accurately ripped
Track Peak [ CRC32 ] [W/O NULL] [ LOG ] -- 71,7 [80F700B9] [3E439E73] 01 15,7 [0CD0DDD6] [471672A6] CRC32 02 17,6 [CFEFA93E] [018D0B17] CRC32 03 12,9 [9591633F] [DD2C9C7A] CRC32 04 18,9 [78FB07AB] [6080E961] CRC32 05 19,1 [451B5BF5] [4B0C9C6B] CRC32 06 15,8 [537ADAD3] [05F590DA] CRC32 07 17,3 [67EE91C7] [156DE2C4] CRC32 08 27,9 [97CC3067] [A903A7E7] CRC32 09 25,0 [33096B99] [8883B59E] CRC32 10 32,7 [479F573C] [0A63B877] CRC32 11 38,8 [F62B8A13] [2E7F0582] CRC32 12 31,6 [2C799239] [A210417F] CRC32 13 32,3 [2BACE788] [594C351B] CRC32 14 57,6 [25E2760F] [F6004B3D] CRC32 15 61,2 [C7C6E5DE] [7E7A0437] CRC32 16 52,0 [4205B92A] [2A94557C] CRC32 17 57,8 [9AC00F9E] [1A33A995] CRC32 18 59,7 [42B26C14] [E2C96962] CRC32 19 37,1 [7AED3EFC] [733B8020] CRC32 20 55,0 [AF704D50] [218AA7AB] CRC32 21 68,9 [10F0CF72] [CCE81CBB] CRC32 22 57,3 [5C64254F] [648ABC53] CRC32 23 71,7 [401B4E8B] [E107C323] CRC32 24 51,5 [9E661346] [AF7C9F0F] CRC32



Показать сообщения:    

Текущее время: 05-Дек 05:30

Часовой пояс: UTC + 3


Вы не можете начинать темы
Вы не можете отвечать на сообщения
Вы не можете редактировать свои сообщения
Вы не можете удалять свои сообщения
Вы не можете голосовать в опросах
Вы не можете прикреплять файлы к сообщениям
Вы не можете скачивать файлы