(classical, piano) Emil Gilels in Tokyo and Yokohama 1984 Brahms, Schumann, Mendelssohn| Эмиль Гилельс - 2007, FLAC (image+.cue), lossless


 

[Цитировать]

Emil Gilels: unreleased recording from Tokyo and Yokohama 1984. Brahms, Schumann, Mendelssohn| Эмиль Гилельс - неизданные ранее записи 1984 годав Токо и Йокогаме. Брамс, Шуман и Мендельсон
Жанр: classical, piano
Год выпуска диска: 2007
Производитель диска: Aquarius
Аудио кодек: FLAC
Тип рипа: image+.cue
Битрейт аудио: lossless
Продолжительность: 76:26
Трэклист:
Johannes Brahms (1833-1897)
1. “7 Fantasias”, op. 116
Robert Schumann (1810-1856)
2. “Four Piano Pieces”, op. 32
a) Scherzo c) Romance
b) Giga d) Fuguette
3. Etudes Symphoniques, op. 13
Felix Mendelssohn-Bartholdy (1809-1847)
4. “Duetto in A-flat” from ‘Lied ohne Worte’, No.6, book 3, op.38
5. “Etude No.3 in a”, Book 2, op.104
Доп. информация: В дополнение к http://teatrix.ru/viewtopic.php?t=14758
Записано 18/03/1984 Kawaganawa Kenmin Hall (Yokohama) -- Шуман
Остальное -- 20/03/1984 Ueno Bunka Kaikan (Tokyo)

Eac log

Exact Audio Copy V0.99 prebeta 4 from 23. January 2008
EAC extraction logfile from 1. September 2008, 23:26
Emil Gilels / Unreleased Recordings from Yokohama and Tokyo 1984
Used drive : LITE-ON DVDRW SOHW-832S Adapter: 2 ID: 0
Read mode : Secure
Utilize accurate stream : Yes
Defeat audio cache : Yes
Make use of C2 pointers : No
Read offset correction : 12
Overread into Lead-In and Lead-Out : No
Fill up missing offset samples with silence : Yes
Delete leading and trailing silent blocks : No
Null samples used in CRC calculations : Yes
Used interface : Native Win32 interface for Win NT & 2000
Used output format : User Defined Encoder
Selected bitrate : 768 kBit/s
Quality : High
Add ID3 tag : No
Command line compressor : C:\Program Files\Exact Audio Copy\FLAC\FLAC.EXE
Additional command line options : --best -V -T "ARTIST=%a" -T "TITLE=%t" -T "ALBUM=%g" -T "DATE=%y" -T "TRACKNUMBER=%n" -T "GENRE=%m" -T "COMMENT=%e" %s -o %d
TOC of the extracted CD
Track | Start | Length | Start sector | End sector
---------------------------------------------------------
1 | 0:00.00 | 24:28.06 | 0 | 110105
2 | 24:28.06 | 13:57.50 | 110106 | 172930
3 | 38:25.56 | 28:30.34 | 172931 | 301214
4 | 66:56.15 | 4:15.56 | 301215 | 320395
5 | 71:11.71 | 5:15.67 | 320396 | 344087
Range status and errors
Selected range
Filename Q:\eac\Emil Gilels - Unreleased Recordings from Yokohama and Tokyo 1984.wav
Peak level 94.6 %
Range quality 100.0 %
Copy CRC 0E10A9DF
Copy OK
No errors occurred
AccurateRip summary
Track 1 not present in database
Track 2 not present in database
Track 3 not present in database
Track 4 not present in database
Track 5 not present in database
None of the tracks are present in the AccurateRip database
End of status report



Показать сообщения:    

Текущее время: 11-Дек 11:06

Часовой пояс: UTC + 3


Вы не можете начинать темы
Вы не можете отвечать на сообщения
Вы не можете редактировать свои сообщения
Вы не можете удалять свои сообщения
Вы не можете голосовать в опросах
Вы не можете прикреплять файлы к сообщениям
Вы не можете скачивать файлы