(Classical) Концерт Эмиля Гилельса в Японии(1984),Шуман-Брамс/Emil Gilels in Japan,Schumann-Brahms - 2006, APE (image+.cue), lossless


 

[Цитировать]

Концерт Эмиля Гилельса в Японии(1984)
Шуман- Симфонические этюды ор.13
Шуман- 4 пьесы ор.32
Брамс- Вариации на тему Паганини ор.35 (1 тетрадь)
Emil Gilels in Japan,Schumann-Brahms

Жанр: Classical
Год выпуска диска: 2006
Производитель диска: Россия
Аудио кодек: APE
Тип рипа: image+.cue
Битрейт аудио: lossless
Продолжительность: total playing time 55.45

Отчёт ЕАС

Exact Audio Copy V0.99 prebeta 4 from 23. January 2008
Отчёт EAC об извлечении, выполненном 18. августа 2008, 20:49
Emil Gilels / In Japan (1984)
Дисковод: SONY CD-RW CRX230ED Adapter: 1 ID: 0
Режим чтения : Достоверность
Использование точного потока : Да
Отключение кэша аудио : Да
Использование указателей C2 : Нет
Коррекция смещения при чтении : 6
Способность читать области Lead-in и Lead-out : Нет
Заполнение пропущенных сэмплов тишиной : Да
Удаление блоков с тишиной в начале и конце : Нет
При вычислениях CRC использовались нулевые сэмплы : Нет
Интерфейс : Встроенный Win32-интерфейс для Win NT/2000
Выходной формат : Внутренние WAV-операции
Формат сэмплов : 44.100 Гц; 16 бит; стерео
TOC извлечённого CD
Трек | Старт | Длительность | Начальный сектор | Конечный сектор
---------------------------------------------------------------------
1 | 0:00.00 | 28:04.65 | 0 | 126364
2 | 28:04.65 | 4:22.00 | 126365 | 146014
3 | 32:26.65 | 1:31.32 | 146015 | 152871
4 | 33:58.22 | 4:35.53 | 152872 | 173549
5 | 38:34.00 | 2:57.67 | 173550 | 186891
6 | 41:31.67 | 13:52.69 | 186892 | 249360
Характеристики диапазона извлечения и сообщения об ошибках
Выбранный диапазон
Имя файла D:\Documents and Settings\Emil Gilels - In Japan (1984).wav
Пиковый уровень 99.7 %
Качество диапазона 99.9 %
CRC копии 5493C1E5
Копирование... OK
Ошибок не произошло
Конец отчёта
Трэклист:
01.Schumann Symphonic Etudes, Op.13
Schumann Four Pieces, Op.32
02.Scherzo
03.Gigue
04.Romanze
05.Fughette
06.Brahms Variations On A Theme By Paganini, Op.35



Показать сообщения:    

Текущее время: 05-Дек 03:30

Часовой пояс: UTC + 3


Вы не можете начинать темы
Вы не можете отвечать на сообщения
Вы не можете редактировать свои сообщения
Вы не можете удалять свои сообщения
Вы не можете голосовать в опросах
Вы не можете прикреплять файлы к сообщениям
Вы не можете скачивать файлы