[SACD-R][OF] Pinchas Zukerman, Ronald Leonhard, Barbara Winters, David Breidenthal, Los Angeles Philharmonic Orchestra - Franz Joseph Haydn: Violin Concerto No. 1 in C major & Sinfonia Concertante in B flat major - 1977,1979/2015 (Orchestral, Vio


Статистика раздачи [Обновить пиров]
Размер:  1.85 GB   |    Зарегистрирован:  10 месяцев   |    Скачан:  1 раз

Полного источника не было: 22 дня

Личеров:  3  [  0 KB/s  ]   Подробная статистика пиров
 
   
 
 
 

[Цитировать]

Pinchas Zukerman, Ronald Leonhard, Barbara Winters, David Breidenthal, Los Angeles Philharmonic Orchestra
Franz Joseph Haydn: Violin Concerto No. 1 in C major & Sinfonia Concertante in B flat major
- Формат записи/Источник записи: [SACD-R][OF]
Наличие водяных знаков: Нет
Год издания/переиздания диска: 1977,1979/2015
Жанр: Orchestral, Violin
Издатель(лейбл): Deutsche Grammophon / Pentatone
Продолжительность: 00:43:12
Наличие сканов в содержимом раздачи: Да-Треклист:
Violin Concerto No. 1 in C major, Hob. VIIa No.1
1) Allegro moderato 10.12
2) Adagio 6.17
3) Finale (Presto) 3.53
Sinfonia Concertante in B flat major, Hob.I No.105
4) Allegro 9.40
5) Andante 6.24
6) Allegro con spirito 6.42-Pinchas Zukerman, violin / conductor
Ronald Leonhard, violoncello obligato
Barbara Winters, oboe obligato
David Breidenthal, bassoon obligato
Members of Los Angeles Philharmonic Orchestra (4-6)-Контейнер: ISO (*.iso)
Тип рипа: image
Разрядность: 64(2,8 MHz/1 Bit)
Формат: DST64
Количество каналов: 5.0, 2.0
Доп. информация: Released on 01-09-2015 , PTC 5186224
Original Quadrophonic Recording
DSD Remastered
Источник (релизер): jasondonovan (PS³SACD)
http://www.pentatonemusic.com/haydn-violin-concerto...concertante-in-b

Об альбоме (сборнике)

Reviews from Amazon.com:
By Robin Friedman:
A little tag line at the conclusion of the liner notes advises the listener to “sit back and enjoy” this reissue of a pair of concerted works by Haydn. In 1977, Pinchas Zukerman played the solo violin and conducted the Los Angeles Philharmonic Orchestra in Haydn’s Violin Concerto no. 1 in C major and in the Sinfonia Concertante in B-flat major. The recording was issued on Deutsche Grammophon using a new quadraphonic recording technique that could not be adequately reproduced by the playback equipment of the day. When the advent of the super audio CD, this recording, and others using the same technique, have been remastered and reissued to capture the sound quality that was impossible to more than 30 years ago. The result is this reissue as part of a series called “Remastered Classics”. The sound is clear and full and offers the opportunity to hear exquisite performances of rarely performed works of Haydn.
The two works on this disk were composed more than 30 years apart. The violin concerto of the early 1760s was written in the baroque concerto form of its time while the sinfonia concertante of 1792 looks backward to the then old concerto grosso form. With that said, the best advice is to “sit back and enjoy” the music and the performance without worrying about the historical details. Zuckerman and the orchestra offer lively. accessible modern-style performances of these works. Zuckerman plays with a large, sweet, and lyrical tone beautifully captured on this reissue and the orchestra provides excellent support.
Haydn composed his violin concerto for the concertmaster at Esterhazy who was also a close friend. The work had been lost until its rediscovery in 1909.Read more ›
By Amazon Customer:
Although sometimes thought of as a workaday genius, whose primary work was in the field of symphonies (104 of them) and string quartets (dozens of those), Franz Joseph Haydn did venture into the concerto field a time or two (with his 1795 Trumpet Concerto being the benchmark for any and all concertos for that instrument). He may not have had the enormous amount of success that his much younger contemporary and close friend Mozart had had in this particular arena, but he nevertheless managed to produce several works that have stayed in the repertoire more or less for two centuries.
One such work is the Violin Concerto No. 1, composed sometime in the 1760s for the Italian violinist Luigi Tomasini, who was soon to become the concertmaster of the Esterhazy court orchestra, whom Haydn had been employed for. It was a work that went unpublished until the middle of the 20th century, but which has since become a favorite of quite a few violinists. It isn’t necessarily a “virtuoso” work like the ones that would come much later from Beethoven or Brahms (let alone even the five that Mozart would soon compose), but this C Major concerto is not an insubstantial work.
At the other end of the spectrum is the Sinfonia-Concertante in B Flat Major that Haydn composed during his London stay, sometime in 1792, and which calls for four soloists, (violin, oboe, cello, and bassoon), plus an orchestra that includes the full string compliment, trumpets, and timpani. Haydn supposedly composed this in-between writing some of his London symphonies as a response to similar works by a former student of his, Ignaz Pleyel. More fulsome in orchestration than the two works in this hybrid form that his friend Mozart composed, this is nevertheless a highly involved work in the Haydn canon that still gets performed in concert.
This particular recording, originally released by Deutsche Grammophon in 1977 but re-released now by the Dutch audiophile label PentatTone, marks one of the first examples of Pinchas Zukerman, who was by then already a very well-known violin virtuoso of sorts, doing double duty, as both violinist and conductor, here leading members of the Los Angeles Philharmonic, whose music director Zubin Mehta was a good friend of his. Zukerman handles both jobs quite well in the Violin Concerto, and works very well with the then-principal players of the L.A.P.O. in the four-tier Sinfonia-Concertante. By the 1980s, Zukerman, in addition to continuing his career as one of the premier violin virtuosos of all times, would also successfully lead the St. Paul Chamber Orchestra as its music director.
This is a re-release well worth getting for anyone wanting to go into the lesser-known corners of Haydn’s compositional sphere, and well recommended.

DR 14

foobar2000 1.3.8 / Замер динамического диапазона (DR) 1.1.1
Дата отчёта: 2016-02-03 15:51:28
--------------------------------------------------------------------------------
Анализ: Pinchas Zukerman - Los Angeles Philharmonic Orchestra / Joseph Haydn - Violin Concerto in C major & Sinfonia Concertante in B flat major
--------------------------------------------------------------------------------
DR Пики RMS Продолжительность трека
--------------------------------------------------------------------------------
DR11 -6.54 дБ -27.68 дБ 10:13 01-Violin Concerto No. 1 in C major, Hob. VIIa No.1 - Allegro moderato
DR11 -11.09 дБ -31.93 дБ 6:18 02-Violin Concerto No. 1 in C major, Hob. VIIa No.1 - Adagio
DR11 -5.22 дБ -26.81 дБ 3:53 03-Violin Concerto No. 1 in C major, Hob. VIIa No.1 - Finale (Presto)
DR10 -3.15 дБ -25.24 дБ 9:41 04-Sinfonia Concertante in B flat major, Hob.I No.105 - Allegro
DR11 -6.92 дБ -29.89 дБ 6:24 05-Sinfonia Concertante in B flat major, Hob.I No.105 - Andante
DR10 -4.05 дБ -25.43 дБ 6:43 06-Sinfonia Concertante in B flat major, Hob.I No.105 - Allegro con spirito
--------------------------------------------------------------------------------
Количество треков: 6
Реальные значения DR: DR11
Частота: 2822400 Гц / Частота PCM: 88200 Гц
Каналов: 5
Разрядность: 24
Битрейт: 14112 кбит/с
Кодек: DST64
================================================================================
--------------------------------------------------------------------------------
Анализ: Pinchas Zukerman - Los Angeles Philharmonic Orchestra / Joseph Haydn - Violin Concerto in C major & Sinfonia Concertante in B flat major
--------------------------------------------------------------------------------
DR Пики RMS Продолжительность трека
--------------------------------------------------------------------------------
DR14 -8.29 дБ -25.62 дБ 10:13 01-Violin Concerto No. 1 in C major, Hob. VIIa No.1 - Allegro moderato
DR14 -9.67 дБ -29.98 дБ 6:18 02-Violin Concerto No. 1 in C major, Hob. VIIa No.1 - Adagio
DR13 -6.89 дБ -24.77 дБ 3:53 03-Violin Concerto No. 1 in C major, Hob. VIIa No.1 - Finale (Presto)
DR13 -3.15 дБ -22.40 дБ 9:41 04-Sinfonia Concertante in B flat major, Hob.I No.105 - Allegro
DR14 -6.98 дБ -27.09 дБ 6:24 05-Sinfonia Concertante in B flat major, Hob.I No.105 - Andante
DR13 -4.02 дБ -22.62 дБ 6:43 06-Sinfonia Concertante in B flat major, Hob.I No.105 - Allegro con spirito
--------------------------------------------------------------------------------
Количество треков: 6
Реальные значения DR: DR14
Частота: 2822400 Гц / Частота PCM: 88200 Гц
Каналов: 2
Разрядность: 24
Битрейт: 5645 кбит/с
Кодек: DST64
================================================================================
[teatrix.ru].t14760.torrent 
Торрент: Зарегистрирован [ 2016-02-09 12:50 ] · 04F5FF5021BF2AF1F3BEA40EC12792F037AB013A

Скачать .torrent

Скачать

38 KB

Статус: проверено
Скачан: 1 раз
Размер: 1.85 GB
terms.php



Быстрый ответ

Имя:

      
Для отправки сообщений необходимо включить JavaScript
Показать сообщения:    

Текущее время: 10-Дек 04:03

Часовой пояс: UTC + 3


Вы можете начинать темы
Вы можете отвечать на сообщения
Вы не можете редактировать свои сообщения
Вы не можете удалять свои сообщения
Вы не можете голосовать в опросах
Вы не можете прикреплять файлы к сообщениям
Вы можете скачивать файлы