[SACD-R][OF] Orchestre national de Lille, Owain Arwel Hughes - William Walton: The Symphonies - 2010 (Orchestral)


Статистика раздачи [Обновить пиров]
Размер:  3.22 GB   |    Зарегистрирован:  9 месяцев 26 дней   |    Скачан:  1 раз

Полного источника не было: 21 день

Личеров:  3  [  0 KB/s  ]   Подробная статистика пиров
 
   
 
 
 

[Цитировать]

Orchestre national de Lille, Owain Arwel Hughes
William Walton: The Symphonies
- Формат записи/Источник записи: [SACD-R][OF]
Наличие водяных знаков: Нет
Год издания/переиздания диска: 2010
Жанр: Orchestral
Издатель(лейбл): BIS Records
Продолжительность: 01:10:41
Наличие сканов в содержимом раздачи: Да-Треклист:
Sir William Walton (1902–83)
Symphony No.1 (1931–35)

1. I. Allegro assai 13'45
2. II. Presto con malizia 6'30
3. III. Andante con malinconia 9'55
4. IV. Maestoso – Allegro, brioso ed ardentemente 12'41
Symphony No.2 (1957–60)
5. I. Allegro molto 8'41
6. II. Lento assai 9'07
7. III. Passacaglia 8'36-Orchestre national de Lille
Owain Arwel Hughes (conductor)-Контейнер: ISO (*.iso)
Тип рипа: image
Разрядность: 64(2,8 MHz/1 Bit)
Формат: DST64
Количество каналов: 5.0, 2.0
Доп. информация: BIS-SACD-1646, Release: Jun 2010
Recording type: PCM
http://sa-cd.net/showtitle/6569
http://www.bis.se/index.php?op=album&aID=BIS-SACD-1646
Источник (релизер): KingCrim (PS³SACD)

Об альбоме (сборнике)

Presto Classical Review
Rarely appearing together on disc, William Walton’s two symphonies are separated by some 25 years. The First Symphony was composed after his dazzling early success, beginning with Façade and culminating in two scores written before Walton reached the age of thirty: the Viola Concerto and the oratorio Belshazzar’s Feast. After this, composition became more difficult, and progress on the symphony was tortuous and protracted. Nevertheless, the work has a strikingly positive tone – perhaps in celebration of the victory over the many demons and difficulties that had attended its creation. 22 years later, in 1957, the musical world was a very different place, but Walton’s response was not to seek solace in reflective nostalgia. It is rather as if he conceived the Second Symphony as a follow-up to his terse and bubbly Partita for orchestra, building on the confidence that the success of that score had given the always self-doubting composer. Owain Arwel Hughes, who conducts the present recording, first made his name with an electrifying televised performance of Walton’s Belshazzar’s Feast which received a notable accolade from the composer. On this recording he brings Walton across the English Channel and conducts one of the leading French orchestras, Orchestre national de Lille, for their first appearance on the BIS label.

DR 17

foobar2000 1.3.8 / Замер динамического диапазона (DR) 1.1.1
Дата отчёта: 2016-01-31 10:21:07
--------------------------------------------------------------------------------
Анализ: Orchestre national de Lille / Hughes / Walton - Symphonies
--------------------------------------------------------------------------------
DR Пики RMS Продолжительность трека
--------------------------------------------------------------------------------
DR15 -7.53 дБ -29.90 дБ 13:55 01-Symphony No. 1: I. Allegro assai
DR16 -8.26 дБ -32.44 дБ 6:36 02-II. Presto con malizia
DR16 -8.46 дБ -33.61 дБ 10:02 03-III. Andante con malinconia
DR16 -6.29 дБ -28.75 дБ 12:59 04-IV. Maestoso - Allegro
DR18 -4.58 дБ -30.98 дБ 8:50 05-Symphony No. 2: I. Allegro molto
DR18 -6.05 дБ -33.54 дБ 9:12 06-II. Lento assai
DR18 -3.37 дБ -29.94 дБ 9:07 07-III. Passacaglia
--------------------------------------------------------------------------------
Количество треков: 7
Реальные значения DR: DR17
Частота: 2822400 Гц / Частота PCM: 88200 Гц
Каналов: 5
Разрядность: 24
Битрейт: 14112 кбит/с
Кодек: DST64
================================================================================
--------------------------------------------------------------------------------
Анализ: Orchestre national de Lille / Hughes / Walton - Symphonies
--------------------------------------------------------------------------------
DR Пики RMS Продолжительность трека
--------------------------------------------------------------------------------
DR14 -9.72 дБ -29.62 дБ 13:55 01-Symphony No. 1: I. Allegro assai
DR16 -11.19 дБ -32.20 дБ 6:36 02-II. Presto con malizia
DR16 -10.25 дБ -33.03 дБ 10:02 03-III. Andante con malinconia
DR16 -6.24 дБ -28.46 дБ 12:59 04-IV. Maestoso - Allegro
DR18 -5.04 дБ -30.19 дБ 8:50 05-Symphony No. 2: I. Allegro molto
DR18 -5.65 дБ -32.84 дБ 9:12 06-II. Lento assai
DR19 -3.33 дБ -29.09 дБ 9:07 07-III. Passacaglia
--------------------------------------------------------------------------------
Количество треков: 7
Реальные значения DR: DR17
Частота: 2822400 Гц / Частота PCM: 88200 Гц
Каналов: 2
Разрядность: 24
Битрейт: 5645 кбит/с
Кодек: DST64
================================================================================
CD-слой диска (2.0 FLAC 16/44,1 image+.cue) раздается здесь
[teatrix.ru].t14761.torrent 
Торрент: Зарегистрирован [ 2016-02-09 12:50 ] · 5C51F3CA11E2BACEDC81F02EF3C3E3A1644197F6

Скачать .torrent

Скачать

17 KB

Статус: проверено
Скачан: 1 раз
Размер: 3.22 GB
terms.php



Быстрый ответ

Имя:

      
Для отправки сообщений необходимо включить JavaScript
Показать сообщения:    

Текущее время: 06-Дек 20:56

Часовой пояс: UTC + 3


Вы можете начинать темы
Вы можете отвечать на сообщения
Вы не можете редактировать свои сообщения
Вы не можете удалять свои сообщения
Вы не можете голосовать в опросах
Вы не можете прикреплять файлы к сообщениям
Вы можете скачивать файлы