[TR24][OF] Andris Nelsons, The Boston Symphony Orchestra - Wagner: Overture to "Tannhäuser" (Tannhauser); Sibelius: Symphony No. 2 - 2014 (Orchestral)


Статистика раздачи [Обновить пиров]
Размер:  2.89 GB   |    Зарегистрирован:  9 месяцев 25 дней   |    Скачан:  0 раз

Полного источника не было: Никогда

Личеров:  3  [  0 KB/s  ]   Подробная статистика пиров
 
   
 
 
 

[Цитировать]

Andris Nelsons, The Boston Symphony Orchestra
Richard Wagner: Overture to "Tannhäuser"
Jean Sibelius: Symphony No. 2 in D, Op. 43
- Формат записи/Источник записи: [TR24][OF]
Наличие водяных знаков: Нет
Год издания/переиздания диска: 2014
Жанр: Orchestral
Издатель(лейбл): BSO Classics
Продолжительность: 01:01:09
Наличие сканов в содержимом раздачи: Да-Треклист:
1. Wagner: Overture to "Tannhäuser" 00:15:55
Sibelius: Symphony No. 2 in D, Op. 43
2. Allegretto 00:10:05
3. Tempo Andante, ma rubato 00:14:30
4. Vivacissimo 00:06:02
5. Finale: Allegro moderato 00:14:37-Контейнер: FLAC (*.flac)
Тип рипа: tracks
Разрядность: 24/96
Формат: PCM
Количество каналов: 5.1
Доп. информация: Release: 11/11/2014
https://www.bso.org/Merchandise/Detail/69970
Источник: WEB

DR 15

foobar2000 1.3.8 / Замер динамического диапазона (DR) 1.1.1
Дата отчёта: 2016-01-29 21:05:01
--------------------------------------------------------------------------------
Анализ: Boston Symphony Orchestra, Andris Nelsons / Boston Symphony Orchestra - Wagner and Sibelius
--------------------------------------------------------------------------------
DR Пики RMS Продолжительность трека
--------------------------------------------------------------------------------
DR14 -2.34 дБ -24.54 дБ 15:55 01-Overture to "Tannhauser"
DR16 -0.41 дБ -25.39 дБ 10:05 02-Symphony No. 2 in D, Op. 43: I. Allegretto
DR16 -0.14 дБ -24.26 дБ 14:31 03-Symphony No. 2 in D, Op. 43: II. Tempo Andante, ma rubato
DR13 -2.88 дБ -24.93 дБ 6:03 04-Symphony No. 2 in D, Op. 43: III. Vivacissimo--
DR14 -0.10 дБ -21.39 дБ 14:37 05-Symphony No. 2 in D, Op. 43: IV. Finale: Allegro moderato
--------------------------------------------------------------------------------
Количество треков: 5
Реальные значения DR: DR15
Частота: 96000 Гц
Каналов: 6
Разрядность: 24
Битрейт: 6980 кбит/с
Кодек: FLAC
================================================================================
[teatrix.ru].t14762.torrent 
Торрент: Зарегистрирован [ 2016-02-09 12:50 ] · 9BD4796A94998D4E7AA9203CEC8C0AE375E4ED5B

Скачать .torrent

Скачать

30 KB

Статус: проверено
Скачан: 0 раз
Размер: 2.89 GB
terms.php



Быстрый ответ

Имя:

      
Для отправки сообщений необходимо включить JavaScript
Показать сообщения:    

Текущее время: 05-Дек 23:32

Часовой пояс: UTC + 3


Вы можете начинать темы
Вы можете отвечать на сообщения
Вы не можете редактировать свои сообщения
Вы не можете удалять свои сообщения
Вы не можете голосовать в опросах
Вы не можете прикреплять файлы к сообщениям
Вы можете скачивать файлы