[SACD-R][OF] Fritz Reiner, Chicago Symphony Orchestra - Mussorgsky (Мусоргский)/Ravel: Pictures At An Exhibition (Картинки с выставки) - 1957/2013 (Orchestral)


Статистика раздачи [Обновить пиров]
Размер:  2.15 GB   |    Зарегистрирован:  10 месяцев   |    Скачан:  0 раз

Полного источника не было: Никогда

Личеров:  3  [  0 KB/s  ]   Подробная статистика пиров
 
   
 
 
 

[Цитировать]

Fritz Reiner, Chicago Symphony Orchestra
Modest Mussorgsky/Maurice Ravel: Pictures At An Exhibition
- Формат записи/Источник записи: [SACD-R][OF]
Наличие водяных знаков: Нет
Год издания/переиздания диска: 1957/2013
Жанр: Orchestral
Издатель(лейбл): RCA Living Stereo / Analogue Productions
Продолжительность: 00:33:05
Наличие сканов в содержимом раздачи: Нет-Треклист:
01] Promenade
02] Gnomus
03] Promenade
04] Il vecchio castello
05] Promenade
06] Tuileries
07] Bydlo
08] Promenade
09] Ballet of the Chicks in Their Shells
10] Samuel Goldenburg and Schmuyle
11] The Marketplace at Limoges
12] Catacombae, sepulchrum romanum
13] Con mortuis in lingua mortua
14] The Hut on Fowl's Legs
15] The Great Gate at Kiev-Chicago Symphony Orchestra
Fritz Reiner-Контейнер: ISO (*.iso)
Тип рипа: image
Разрядность: 64(2,8 MHz/1 Bit)
Формат: DST64
Количество каналов: 5.0, 2.0
Доп. информация: CAPC 2201, Hybrid 3-Channel Stereo SACD
http://sa-cd.net/showtitle/8861
http://store.acousticsounds.com/d/91650/Fritz_Reine...nnel_Stereo_SACD

DR 7 (2.0)/ DR 11 (5.0) (бредовые цифры, но таков измеритель. RMS фонограммы в диапазоне от -19 до -38dB)

foobar2000 1.3.8 / Замер динамического диапазона (DR) 1.1.1
Дата отчёта: 2016-01-28 22:07:29
--------------------------------------------------------------------------------
Анализ: Fritz Reiner - Chicago Symphony / Mussorgsky: Pictures at an Exhibition
--------------------------------------------------------------------------------
DR Пики RMS Продолжительность трека
--------------------------------------------------------------------------------
DR6 -6.83 дБ -24.00 дБ 1:50 01-Promenade
DR8 -3.70 дБ -25.56 дБ 2:34 02-Gnomus
DR7 -18.43 дБ -38.55 дБ 1:06 03-Promenade
DR7 -12.49 дБ -33.93 дБ 4:26 04-Il vecchio castello
DR6 -8.52 дБ -25.01 дБ 0:35 05-Promenade
DR8 -9.96 дБ -32.45 дБ 0:59 06-Tuileries
DR6 -5.48 дБ -22.87 дБ 3:25 07-Bydlo
DR6 -10.03 дБ -28.22 дБ 0:44 08-Promenade
DR7 -12.73 дБ -33.96 дБ 1:12 09-Ballet of the Chicks in Their Shells
DR6 -4.34 дБ -24.65 дБ 2:14 10-Samuel Goldenburg and Schmuyle
DR6 -5.60 дБ -22.58 дБ 1:18 11-The Marketplace at Limoges
DR6 -7.07 дБ -26.52 дБ 1:57 12-Catacombae, sepulchrum romanum
DR7 -19.66 дБ -38.15 дБ 1:59 13-Con mortuis in lingua mortua
DR6 -5.18 дБ -23.56 дБ 3:28 14-The Hut on Fowl's Legs
DR7 -4.30 дБ -21.41 дБ 5:17 15-The Great Gate at Kiev
--------------------------------------------------------------------------------
Количество треков: 15
Реальные значения DR: DR7
Частота: 2822400 Гц / Частота PCM: 88200 Гц
Каналов: 5
Разрядность: 24
Битрейт: 14112 кбит/с
Кодек: DST64
================================================================================
--------------------------------------------------------------------------------
Анализ: Fritz Reiner - Chicago Symphony / Mussorgsky: Pictures at an Exhibition
--------------------------------------------------------------------------------
DR Пики RMS Продолжительность трека
--------------------------------------------------------------------------------
DR10 -6.35 дБ -21.78 дБ 1:50 01-Promenade
DR14 -3.82 дБ -23.57 дБ 2:34 02-Gnomus
DR11 -19.34 дБ -36.46 дБ 1:06 03-Promenade
DR12 -13.73 дБ -31.96 дБ 4:26 04-Il vecchio castello
DR10 -7.85 дБ -22.93 дБ 0:35 05-Promenade
DR13 -10.13 дБ -30.31 дБ 0:59 06-Tuileries
DR10 -4.86 дБ -20.99 дБ 3:25 07-Bydlo
DR10 -10.70 дБ -26.24 дБ 0:44 08-Promenade
DR11 -13.75 дБ -31.80 дБ 1:12 09-Ballet of the Chicks in Their Shells
DR11 -5.33 дБ -22.60 дБ 2:14 10-Samuel Goldenburg and Schmuyle
DR11 -5.33 дБ -20.23 дБ 1:18 11-The Marketplace at Limoges
DR10 -6.49 дБ -24.19 дБ 1:57 12-Catacombae, sepulchrum romanum
DR12 -20.12 дБ -35.99 дБ 1:59 13-Con mortuis in lingua mortua
DR11 -4.68 дБ -21.37 дБ 3:28 14-The Hut on Fowl's Legs
DR11 -3.83 дБ -19.41 дБ 5:17 15-The Great Gate at Kiev
--------------------------------------------------------------------------------
Количество треков: 15
Реальные значения DR: DR11
Частота: 2822400 Гц / Частота PCM: 88200 Гц
Каналов: 2
Разрядность: 24
Битрейт: 5645 кбит/с
Кодек: DSD64
================================================================================
[teatrix.ru].t14763.torrent 
Торрент: Зарегистрирован [ 2016-02-09 12:50 ] · AB68327433BF8615B6E18295F46C5AA393D41B31

Скачать .torrent

Скачать

44 KB

Статус: проверено
Скачан: 0 раз
Размер: 2.15 GB
terms.php



Быстрый ответ

Имя:

      
Для отправки сообщений необходимо включить JavaScript
Показать сообщения:    

Текущее время: 10-Дек 09:57

Часовой пояс: UTC + 3


Вы можете начинать темы
Вы можете отвечать на сообщения
Вы не можете редактировать свои сообщения
Вы не можете удалять свои сообщения
Вы не можете голосовать в опросах
Вы не можете прикреплять файлы к сообщениям
Вы можете скачивать файлы