[SACD-R][OF] James Levine, Chicago Symphony Orchestra - Antonín Dvorák (Dvorak): Symphonies 7 & 9 "Z nového světa (From The New World)" (Special edition) - 1981,1984/2005 (Orchestral)


Статистика раздачи [Обновить пиров]
Размер:  4.12 GB   |    Зарегистрирован:  10 месяцев   |    Скачан:  1 раз

Полного источника не было: 21 день

Личеров:  3  [  0 KB/s  ]   Подробная статистика пиров
 
   
 
 
 

[Цитировать]

James Levine, Chicago Symphony Orchestra
Antonin Dvorak: Symphonies 7 & 9 "Z nového světa (From The New World)"

Формат записи/Источник записи: [SACD-R][OF]
Наличие водяных знаков: Нет
Издание: Special edition
Год издания/переиздания диска: 1981,1984/2005
Жанр: Orchestral
Издатель(лейбл): Sony / SONOCORD (Club-Edition Bertelsmann)
Продолжительность: 01:19:46
Наличие сканов в содержимом раздачи: Нет-Треклист:
Symphony No. 7 Op. 70 In D Minor - D-Moll (38:31)
1 Allegro Maestoso 10:52
2 Poco Adagio 9:56
3 Scherzo: Vivace 8:14
4 Allegro 9:16
Symphony No. 9 "Z nového světa / From The New World" Op. 95 In E-Minor - E-Moll (40:22)
5 Adagio - Allegro Molto 10:55
6 Largo 12:30
7 Scherzo: Molto Vivace 7:19
8 Allegro Con Fuoco-James Levine (Conductor)
Chicago Symphony Orchestra-Контейнер: ISO (*.iso)
Тип рипа: image
Разрядность: 64(2,8 MHz/1 Bit)
Формат: DST64
Количество каналов: 5.1 (без 2.0 / no 2.0)
ТОЛЬКО МНОГОКАНАЛЬНЫЙ
Доп. информация:
"24-Bit/96khz Sound Dimension." Symphony No. 7 recorded 1984, Symphony No. 9 recorded 1981. DDD.
Очень Доп. информация:
Диск издан в серии "Edition 100", запущенной в 2004 немецкой компанией Bertelsmann, и продавался только через их Music and Book Club. Поэтому в сети отсутствует информация о его продажах. Однако, внутри раздачи вполне достаточное количество фото-доказательств его существования.
Информацию о серии можно найти здесь: http://www.sa-cd.net/showthread/7414/
---------------------
Part of the "Edition 100" series, which was launched 2004 in Germany to publicize the SACD format.
Remastered and manufactured by Sonocord, Gütersloh.
Remastered At – Sonocord
This sacd was sold only by the german company Bertelsmann in their Music and Book Club, where you had to be a member to buy anything.

DR 14

foobar2000 1.3.8 / Замер динамического диапазона (DR) 1.1.1
Дата отчёта: 2016-01-26 23:29:19
--------------------------------------------------------------------------------
Анализ: ? / ?
--------------------------------------------------------------------------------
DR Пики RMS Продолжительность трека
--------------------------------------------------------------------------------
DR12 -1.65 дБ -22.77 дБ 10:52 01-Unknown Album
DR15 -1.70 дБ -26.56 дБ 9:57 02-Unknown Album
DR12 -4.63 дБ -24.02 дБ 8:15 03-Unknown Album
DR12 -2.07 дБ -21.98 дБ 9:17 04-Unknown Album
DR14 -3.29 дБ -26.51 дБ 10:56 05-Unknown Album
DR19 -4.96 дБ -34.09 дБ 12:30 06-Unknown Album
DR13 -2.06 дБ -24.01 дБ 7:19 07-Unknown Album
DR13 -1.13 дБ -22.05 дБ 10:40 08-Unknown Album
--------------------------------------------------------------------------------
Количество треков: 8
Реальные значения DR: DR14
Частота: 2822400 Гц / Частота PCM: 88200 Гц
Каналов: 6
Разрядность: 24
Битрейт: 16934 кбит/с
Кодек: DST64
================================================================================
[teatrix.ru].t14764.torrent 
Торрент: Зарегистрирован [ 2016-02-09 12:50 ] · F63D6D609BD43E18AA18A4A8BABFD51A67EF2EE4

Скачать .torrent

Скачать

42 KB

Статус: проверено
Скачан: 1 раз
Размер: 4.12 GB
terms.php



Быстрый ответ

Имя:

      
Для отправки сообщений необходимо включить JavaScript
Показать сообщения:    

Текущее время: 10-Дек 02:14

Часовой пояс: UTC + 3


Вы можете начинать темы
Вы можете отвечать на сообщения
Вы не можете редактировать свои сообщения
Вы не можете удалять свои сообщения
Вы не можете голосовать в опросах
Вы не можете прикреплять файлы к сообщениям
Вы можете скачивать файлы