(Classical) Римский-Корсаков - Фантазия на русские темы; Танеев - Концертная сюита для скрипки с оркестром - Лидия Мордкович (Mordkovitch), Royal Scottish National Orchestra, Neeme Järvi (Jarvi) - 2008, FLAC (image+.cue) lossless


Статистика раздачи [Обновить пиров]
Размер:  268 MB   |    Зарегистрирован:  10 месяцев   |    Скачан:  0 раз

Полного источника не было: Никогда

Личеров:  3  [  0 KB/s  ]   Подробная статистика пиров
 
   
 
 
 

[Цитировать]

Николай Римский-Корсаков - Фантазия на русские темы; Сергей Танеев - Концертная сюита для скрипки с оркестром - Лидия Мордкович (Mordkovitch), Royal Scottish National Orchestra, Neeme Järvi
Жанр: Classical
Страна-производитель диска: UK
Год издания диска: 2008
Издатель (лейбл): Chandos Records
Номер по каталогу: CHAN 10491
Дата записи: 2008
Аудиокодек: FLAC
Тип рипа: image+.cue
Битрейт аудио: lossless
Продолжительность: 64:53
Источник: собственный рип
Наличие сканов в содержимом раздачи: да
Треклист:
Николай Андреевич Римский-Корсаков (1844-1908)
[1]-[3] Фантазия на русские темы, соч. 33
Сергей Иванович Танеев (1856-1915)
[4]-[15] Концертная сюита для скрипки с оркестром, соч. 28
Исполнители:
Лидия Мордкович скрипка
Royal Scottish National Orchestra
Neeme Järvi
conductor

Лог создания рипа

Exact Audio Copy V1.0 beta 3 from 29. August 2011
EAC extraction logfile from 19. May 2015, 23:03
Lydia Mordkovitch, Royal Scottish National Orchestra, Neeme Järvi / Taneyev, Rimsky-Korsakov - Violin Concertos
Used drive : HL-DT-STDVDRAM GU70N Adapter: 0 ID: 0
Read mode : SecureUtilize accurate stream : YesDefeat audio cache : YesMake use of C2 pointers : No
Read offset correction : 48Overread into Lead-In and Lead-Out : NoFill up missing offset samples with silence : YesDelete leading and trailing silent blocks : NoNull samples used in CRC calculations : YesUsed interface : Native Win32 interface for Win NT & 2000
Used output format : User Defined EncoderSelected bitrate : 128 kBit/sQuality : HighAdd ID3 tag : NoCommand line compressor : C:\Program Files (x86)\Exact Audio Copy\Flac\flac.exeAdditional command line options : -V -8 -T "Date=%year%" -T "Genre=%genre%" %source%
TOC of the extracted CD
Track | Start | Length | Start sector | End sector --------------------------------------------------------- 1 | 0:00.00 | 7:31.08 | 0 | 33832 2 | 7:31.08 | 3:15.30 | 33833 | 48487 3 | 10:46.38 | 6:49.25 | 48488 | 79187 4 | 17:35.63 | 7:52.10 | 79188 | 114597 5 | 25:27.73 | 5:34.65 | 114598 | 139712 6 | 31:02.63 | 9:51.60 | 139713 | 184097 7 | 40:54.48 | 1:34.15 | 184098 | 191162 8 | 42:28.63 | 1:17.20 | 191163 | 196957 9 | 43:46.08 | 1:41.20 | 196958 | 204552 10 | 45:27.28 | 2:15.14 | 204553 | 214691 11 | 47:42.42 | 1:56.61 | 214692 | 223452 12 | 49:39.28 | 0:55.65 | 223453 | 227642 13 | 50:35.18 | 1:36.45 | 227643 | 234887 14 | 52:11.63 | 4:51.20 | 234888 | 256732 15 | 57:03.08 | 7:48.67 | 256733 | 291899
Range status and errors
Selected range
Filename C:\temp\CHAN_10491 - Taneyev, Rimsky-Korsakov - Violin Concertos\Taneyev, Rimsky-Korsakov - Violin Concertos.wav
Peak level 97.7 % Extraction speed 2.1 X Range quality 99.9 % Test CRC BBFD58D7 Copy CRC BBFD58D7 Copy OK
No errors occurred
AccurateRip summary
Track 1 accurately ripped (confidence 5) [4B2A834C] (AR v2)Track 2 accurately ripped (confidence 5) [89905FAF] (AR v2)Track 3 accurately ripped (confidence 5) [70A82FDB] (AR v2)Track 4 accurately ripped (confidence 5) [026D21FE] (AR v2)Track 5 accurately ripped (confidence 5) [52518EFC] (AR v2)Track 6 accurately ripped (confidence 5) [33424929] (AR v2)Track 7 accurately ripped (confidence 5) [AA122670] (AR v2)Track 8 accurately ripped (confidence 5) [063936B3] (AR v2)Track 9 accurately ripped (confidence 5) [43225C3D] (AR v2)Track 10 accurately ripped (confidence 5) [AAE3FDA4] (AR v2)Track 11 accurately ripped (confidence 5) [0BA51B14] (AR v2)Track 12 accurately ripped (confidence 5) [47BD5B2A] (AR v2)Track 13 accurately ripped (confidence 5) [52493682] (AR v2)Track 14 accurately ripped (confidence 5) [742F01A7] (AR v2)Track 15 accurately ripped (confidence 5) [BC5BD374] (AR v2)
All tracks accurately ripped
End of status report
==== Log checksum 0F105AC46533CAA481E626FF7D5772C318EB8AB3F7A9B41390D3266D6BC85962 ====
[teatrix.ru].t14765.torrent 
Торрент: Зарегистрирован [ 2016-02-09 12:50 ] · C865693B52DBCDCF64718A511CEC812398F6B495

Скачать .torrent

Скачать

22 KB

Статус: проверено
Скачан: 0 раз
Размер: 268 MB
terms.php



Быстрый ответ

Имя:

      
Для отправки сообщений необходимо включить JavaScript
Показать сообщения:    

Текущее время: 09-Дек 20:29

Часовой пояс: UTC + 3


Вы можете начинать темы
Вы можете отвечать на сообщения
Вы не можете редактировать свои сообщения
Вы не можете удалять свои сообщения
Вы не можете голосовать в опросах
Вы не можете прикреплять файлы к сообщениям
Вы можете скачивать файлы