(Classical, oboe) Albinoni - Concerti a cinque, Opp. 7 and 9 - Anthony Robson, Catherine Latham, Collegium Musicum 90, Simon Standage - 2013, FLAC (image+.cue) lossless


Статистика раздачи [Обновить пиров]
Размер:  1.03 GB   |    Зарегистрирован:  10 месяцев 1 день   |    Скачан:  1 раз

Полного источника не было: 2 месяца 5 дней

Личеров:  3  [  0 KB/s  ]   Подробная статистика пиров
 
   
 
 
 

[Цитировать]

Tomaso Albinoni - Concerti a cinque, Opp. 7 and 9 - Anthony Robson, Catherine Latham, Collegium Musicum 90, Simon Standage
Жанр: Classical, oboe
Страна-производитель диска: UK
Год издания диска: 2013
Издатель (лейбл): Chandos Records
Номер по каталогу: CHAN 0792(3)
Дата записи: 1995, 1996
Аудиокодек: FLAC
Тип рипа: image+.cue
Битрейт аудио: lossless
Продолжительность: 199:20
Источник: собственный рип
Наличие сканов в содержимом раздачи: да
Треклист:
Tomaso Giovanni Albinoni (1671 – 1750 / 51)
Concerti a cinque, Opp. 7 and 9

CD1

[1]-[2] Concerto in D major, Op.7 No.1
[3]-[5] Concerto in C major, Op.7 No.2 *†
[6]-[8] Concerto in B flat major, Op.7 No.3 *
[9]-[11] Concerto in G major, Op.7 No.4
[12]-[14] Concerto in C major, Op.7 No.5 *†
[15]-[17] Concerto in D major, Op.7 No.6 *
[18]-[20] Concerto in A major, Op.7 No.7
[21]-[23] Concerto in D major, Op.7 No.8 *†
[24]-[26] Concerto in F major, Op.7 No.9 *
[27]-[29] Concerto in B flat major, Op.7 No.10
[30]-[32] Concerto in C major, Op.7 No.11 *†
[33]-[35] Concerto in C major, Op.7 No.12 *

CD2

[1]-[3] Concerto in B flat major, Op.9 No.1
[4]-[6] Concerto in D minor, Op.9 No.2 *
[7]-[9] Concerto in F major, Op.9 No.3 *†
[10]-[12] Concerto in A major, Op.9 No.4
[13]-[15] Concerto in C major, Op.9 No.5 *
[16]-[18] Concerto in G major, Op.9 No.6 *†

CD3

[1]-[3] Concerto in D major, Op.9 No.7
[4]-[6] Concerto in G minor, Op.9 No.8 *
[7]-[9] Concerto in C major, Op.9 No.9 *†
[10]-[12] Concerto in F major, Op.9 No.10
[13]-[15] Concerto in B flat major, Op.9 No.11 *
[16]-[18] Concerto in D major, Op.9 No.12 *†
[19]-[21] Sinfonia in G minor
Исполнители:
Anthony Robson oboe*
Catherine Latham oboe†
Collegium Musicum 90
Simon Standage

Лог создания рипа: CD1

Exact Audio Copy V1.0 beta 3 from 29. August 2011
EAC extraction logfile from 2. May 2015, 1:15
Collegium Musicum 90, Simon Standage / Albinoni - Concerti a cinque, Opp.7 & 9 - CD1
Used drive : HL-DT-STDVDRAM GU70N Adapter: 0 ID: 0
Read mode : SecureUtilize accurate stream : YesDefeat audio cache : YesMake use of C2 pointers : No
Read offset correction : 48Overread into Lead-In and Lead-Out : NoFill up missing offset samples with silence : YesDelete leading and trailing silent blocks : NoNull samples used in CRC calculations : YesUsed interface : Native Win32 interface for Win NT & 2000
Used output format : User Defined EncoderSelected bitrate : 128 kBit/sQuality : HighAdd ID3 tag : NoCommand line compressor : C:\Program Files (x86)\Exact Audio Copy\Flac\flac.exeAdditional command line options : -V -8 -T "Date=%year%" -T "Genre=%genre%" %source%
TOC of the extracted CD
Track | Start | Length | Start sector | End sector --------------------------------------------------------- 1 | 0:00.00 | 2:28.38 | 0 | 11137 2 | 2:28.38 | 1:25.55 | 11138 | 17567 3 | 3:54.18 | 2:04.20 | 17568 | 26887 4 | 5:58.38 | 1:00.35 | 26888 | 31422 5 | 6:58.73 | 1:56.40 | 31423 | 40162 6 | 8:55.38 | 2:50.45 | 40163 | 52957 7 | 11:46.08 | 2:40.30 | 52958 | 64987 8 | 14:26.38 | 2:12.35 | 64988 | 74922 9 | 16:38.73 | 2:41.40 | 74923 | 87037 10 | 19:20.38 | 1:54.45 | 87038 | 95632 11 | 21:15.08 | 2:17.40 | 95633 | 105947 12 | 23:32.48 | 1:57.55 | 105948 | 114777 13 | 25:30.28 | 1:43.20 | 114778 | 122522 14 | 27:13.48 | 1:16.65 | 122523 | 128287 15 | 28:30.38 | 2:58.55 | 128288 | 141692 16 | 31:29.18 | 2:24.45 | 141693 | 152537 17 | 33:53.63 | 2:16.60 | 152538 | 162797 18 | 36:10.48 | 2:21.35 | 162798 | 173407 19 | 38:32.08 | 1:28.20 | 173408 | 180027 20 | 40:00.28 | 1:49.20 | 180028 | 188222 21 | 41:49.48 | 2:18.35 | 188223 | 198607 22 | 44:08.08 | 1:52.00 | 198608 | 207007 23 | 46:00.08 | 1:33.20 | 207008 | 214002 24 | 47:33.28 | 2:41.45 | 214003 | 226122 25 | 50:14.73 | 1:05.40 | 226123 | 231037 26 | 51:20.38 | 2:29.00 | 231038 | 242212 27 | 53:49.38 | 2:31.30 | 242213 | 253567 28 | 56:20.68 | 2:02.55 | 253568 | 262772 29 | 58:23.48 | 1:44.25 | 262773 | 270597 30 | 60:07.73 | 2:37.65 | 270598 | 282437 31 | 62:45.63 | 2:13.20 | 282438 | 292432 32 | 64:59.08 | 2:34.30 | 292433 | 304012 33 | 67:33.38 | 3:02.65 | 304013 | 317727 34 | 70:36.28 | 2:32.55 | 317728 | 329182 35 | 73:09.08 | 2:05.67 | 329183 | 338624
Range status and errors
Selected range
Filename C:\temp\CHAN_00792(3) - Albinoni - The Collected Concertos for Oboes and Strings\CD1\Albinoni - Concerti a cinque, Opp.7 & 9 - CD1.wav
Peak level 93.0 % Extraction speed 2.3 X Range quality 100.0 % Test CRC 763E803B Copy CRC 763E803B Copy OK
No errors occurred
AccurateRip summary
Track 1 accurately ripped (confidence 2) [F808B0AC] (AR v2)Track 2 accurately ripped (confidence 2) [141CB767] (AR v2)Track 3 accurately ripped (confidence 2) [5D40B0B7] (AR v2)Track 4 accurately ripped (confidence 2) [F10A0C2C] (AR v2)Track 5 accurately ripped (confidence 2) [2CF18626] (AR v2)Track 6 accurately ripped (confidence 2) [31D774FD] (AR v2)Track 7 accurately ripped (confidence 2) [05A1DDAA] (AR v2)Track 8 accurately ripped (confidence 2) [4C4AD70F] (AR v2)Track 9 accurately ripped (confidence 2) [4A2D59AA] (AR v2)Track 10 accurately ripped (confidence 2) [34EBFB58] (AR v2)Track 11 accurately ripped (confidence 2) [8A585452] (AR v2)Track 12 accurately ripped (confidence 2) [A3A5D6C9] (AR v2)Track 13 accurately ripped (confidence 2) [13344034] (AR v2)Track 14 accurately ripped (confidence 2) [BC56D894] (AR v2)Track 15 accurately ripped (confidence 2) [DA43FA35] (AR v2)Track 16 accurately ripped (confidence 2) [B5D466F4] (AR v2)Track 17 accurately ripped (confidence 2) [80331464] (AR v2)Track 18 accurately ripped (confidence 2) [AD108229] (AR v2)Track 19 accurately ripped (confidence 2) [EE9E8119] (AR v2)Track 20 accurately ripped (confidence 2) [E08CF175] (AR v2)Track 21 accurately ripped (confidence 2) [68CCC10C] (AR v2)Track 22 accurately ripped (confidence 2) [42B9CA4B] (AR v2)Track 23 accurately ripped (confidence 2) [1A40C159] (AR v2)Track 24 accurately ripped (confidence 2) [7AB6B8F9] (AR v2)Track 25 accurately ripped (confidence 2) [D40CE02C] (AR v2)Track 26 accurately ripped (confidence 2) [4F4CC847] (AR v2)Track 27 accurately ripped (confidence 2) [71C19100] (AR v2)Track 28 accurately ripped (confidence 2) [423F5990] (AR v2)Track 29 accurately ripped (confidence 2) [947DEC59] (AR v2)Track 30 accurately ripped (confidence 2) [96F983CB] (AR v2)Track 31 accurately ripped (confidence 2) [FD45D47E] (AR v2)Track 32 accurately ripped (confidence 2) [57A1DFF6] (AR v2)Track 33 accurately ripped (confidence 2) [06AE1839] (AR v2)Track 34 accurately ripped (confidence 2) [91E1E120] (AR v2)Track 35 accurately ripped (confidence 2) [6C97F0BC] (AR v2)
All tracks accurately ripped
End of status report
==== Log checksum 0F75BEBF487FF9228E5921B43430B5656106FE96AE22B4699A57861A03448F6A ====

Лог создания рипа: CD2

Exact Audio Copy V1.0 beta 3 from 29. August 2011
EAC extraction logfile from 2. May 2015, 16:42
Collegium Musicum 90, Simon Standage / Albinoni - Concerti a cinque, Opp.7 & 9 - CD2
Used drive : HL-DT-STDVDRAM GU70N Adapter: 0 ID: 0
Read mode : SecureUtilize accurate stream : YesDefeat audio cache : YesMake use of C2 pointers : No
Read offset correction : 48Overread into Lead-In and Lead-Out : NoFill up missing offset samples with silence : YesDelete leading and trailing silent blocks : NoNull samples used in CRC calculations : YesUsed interface : Native Win32 interface for Win NT & 2000
Used output format : User Defined EncoderSelected bitrate : 128 kBit/sQuality : HighAdd ID3 tag : NoCommand line compressor : C:\Program Files (x86)\Exact Audio Copy\Flac\flac.exeAdditional command line options : -V -8 -T "Date=%year%" -T "Genre=%genre%" %source%
TOC of the extracted CD
Track | Start | Length | Start sector | End sector --------------------------------------------------------- 1 | 0:00.00 | 3:27.63 | 0 | 15587 2 | 3:27.63 | 1:14.20 | 15588 | 21157 3 | 4:42.08 | 2:25.30 | 21158 | 32062 4 | 7:07.38 | 4:07.05 | 32063 | 50592 5 | 11:14.43 | 5:00.50 | 50593 | 73142 6 | 16:15.18 | 3:05.30 | 73143 | 87047 7 | 19:20.48 | 4:31.25 | 87048 | 107397 8 | 23:51.73 | 2:16.50 | 107398 | 117647 9 | 26:08.48 | 3:47.00 | 117648 | 134672 10 | 29:55.48 | 4:03.45 | 134673 | 152942 11 | 33:59.18 | 2:02.10 | 152943 | 162102 12 | 36:01.28 | 3:25.35 | 162103 | 177512 13 | 39:26.63 | 3:39.60 | 177513 | 193997 14 | 43:06.48 | 2:00.55 | 193998 | 203052 15 | 45:07.28 | 3:21.10 | 203053 | 218137 16 | 48:28.38 | 3:41.00 | 218138 | 234712 17 | 52:09.38 | 2:35.45 | 234713 | 246382 18 | 54:45.08 | 2:59.67 | 246383 | 259874
Range status and errors
Selected range
Filename C:\temp\CHAN_00792(3) - Albinoni - The Collected Concertos for Oboes and Strings\CD2\Albinoni - Concerti a cinque, Opp.7 & 9 - CD2.wav
Peak level 89.6 % Extraction speed 5.1 X Range quality 100.0 % Test CRC B58E6013 Copy CRC B58E6013 Copy OK
No errors occurred
AccurateRip summary
Track 1 accurately ripped (confidence 1) [279AF331] (AR v2)Track 2 accurately ripped (confidence 1) [A1622414] (AR v2)Track 3 accurately ripped (confidence 1) [7C26CE7E] (AR v2)Track 4 accurately ripped (confidence 1) [BA1D209E] (AR v2)Track 5 accurately ripped (confidence 1) [E6D8ADCE] (AR v2)Track 6 accurately ripped (confidence 1) [8A88140C] (AR v2)Track 7 accurately ripped (confidence 1) [CEEC3688] (AR v2)Track 8 accurately ripped (confidence 1) [2AC4BA71] (AR v2)Track 9 accurately ripped (confidence 1) [7BA2E2FB] (AR v2)Track 10 accurately ripped (confidence 1) [C09A3FD8] (AR v2)Track 11 accurately ripped (confidence 1) [C158436F] (AR v2)Track 12 accurately ripped (confidence 1) [2F27CD5F] (AR v2)Track 13 accurately ripped (confidence 1) [D610402F] (AR v2)Track 14 accurately ripped (confidence 1) [57604BF1] (AR v2)Track 15 accurately ripped (confidence 1) [6D9BE61E] (AR v2)Track 16 accurately ripped (confidence 1) [A822C3E2] (AR v2)Track 17 accurately ripped (confidence 1) [699FDB30] (AR v2)Track 18 accurately ripped (confidence 1) [D26DF954] (AR v2)
All tracks accurately ripped
End of status report
==== Log checksum F6F751128BCA354CA2BBE07C54F09A9A50414C812DE15A52D56E2A596C1A3D7D ====

Лог создания рипа: CD3

Exact Audio Copy V1.0 beta 3 from 29. August 2011
EAC extraction logfile from 2. May 2015, 18:24
Collegium Musicum 90, Simon Standage / Albinoni - Concerti a cinque, Opp.7 & 9 - CD3
Used drive : HL-DT-STDVDRAM GU70N Adapter: 0 ID: 0
Read mode : SecureUtilize accurate stream : YesDefeat audio cache : YesMake use of C2 pointers : No
Read offset correction : 48Overread into Lead-In and Lead-Out : NoFill up missing offset samples with silence : YesDelete leading and trailing silent blocks : NoNull samples used in CRC calculations : YesUsed interface : Native Win32 interface for Win NT & 2000
Used output format : User Defined EncoderSelected bitrate : 128 kBit/sQuality : HighAdd ID3 tag : NoCommand line compressor : C:\Program Files (x86)\Exact Audio Copy\Flac\flac.exeAdditional command line options : -V -8 -T "Date=%year%" -T "Genre=%genre%" %source%
TOC of the extracted CD
Track | Start | Length | Start sector | End sector --------------------------------------------------------- 1 | 0:00.00 | 3:36.38 | 0 | 16237 2 | 3:36.38 | 5:12.40 | 16238 | 39677 3 | 8:49.03 | 2:49.70 | 39678 | 52422 4 | 11:38.73 | 4:16.00 | 52423 | 71622 5 | 15:54.73 | 2:15.65 | 71623 | 81812 6 | 18:10.63 | 3:48.20 | 81813 | 98932 7 | 21:59.08 | 3:53.55 | 98933 | 116462 8 | 25:52.63 | 2:26.50 | 116463 | 127462 9 | 28:19.38 | 3:50.45 | 127463 | 144757 10 | 32:10.08 | 3:34.30 | 144758 | 160837 11 | 35:44.38 | 3:22.25 | 160838 | 176012 12 | 39:06.63 | 3:30.10 | 176013 | 191772 13 | 42:36.73 | 4:16.30 | 191773 | 211002 14 | 46:53.28 | 3:08.25 | 211003 | 225127 15 | 50:01.53 | 3:25.10 | 225128 | 240512 16 | 53:26.63 | 3:12.00 | 240513 | 254912 17 | 56:38.63 | 2:31.10 | 254913 | 266247 18 | 59:09.73 | 1:28.10 | 266248 | 272857 19 | 60:38.08 | 2:19.65 | 272858 | 283347 20 | 62:57.73 | 1:19.20 | 283348 | 289292 21 | 64:17.18 | 2:00.57 | 289293 | 298349
Range status and errors
Selected range
Filename C:\temp\CHAN_00792(3) - Albinoni - The Collected Concertos for Oboes and Strings\CD3\Albinoni - Concerti a cinque, Opp.7 & 9 - CD3.wav
Peak level 82.0 % Extraction speed 2.1 X Range quality 99.9 % Test CRC 3B7254F6 Copy CRC 3B7254F6 Copy OK
No errors occurred
AccurateRip summary
Track 1 accurately ripped (confidence 2) [B901763E] (AR v2)Track 2 accurately ripped (confidence 2) [4BE97A52] (AR v2)Track 3 accurately ripped (confidence 2) [DE023F48] (AR v2)Track 4 accurately ripped (confidence 2) [079788BD] (AR v2)Track 5 accurately ripped (confidence 2) [6AFB08C2] (AR v2)Track 6 accurately ripped (confidence 2) [E172A6DD] (AR v2)Track 7 accurately ripped (confidence 2) [4463CE55] (AR v2)Track 8 accurately ripped (confidence 2) [31BC54D3] (AR v2)Track 9 accurately ripped (confidence 2) [9564FC5C] (AR v2)Track 10 accurately ripped (confidence 2) [045BB0DD] (AR v2)Track 11 accurately ripped (confidence 2) [F4D02A6B] (AR v2)Track 12 accurately ripped (confidence 2) [0D57D83D] (AR v2)Track 13 accurately ripped (confidence 2) [60A2DE85] (AR v2)Track 14 accurately ripped (confidence 2) [D95CF596] (AR v2)Track 15 accurately ripped (confidence 2) [B2F2A722] (AR v2)Track 16 accurately ripped (confidence 2) [42DC06EC] (AR v2)Track 17 accurately ripped (confidence 2) [8B965233] (AR v2)Track 18 accurately ripped (confidence 2) [895DDDA5] (AR v2)Track 19 accurately ripped (confidence 2) [4F686A8D] (AR v2)Track 20 accurately ripped (confidence 2) [CE06DCED] (AR v2)Track 21 accurately ripped (confidence 2) [FB6AD2D5] (AR v2)
All tracks accurately ripped
End of status report
==== Log checksum 66C3B2CCB041385E646867C9E0F9F9C006CB4BD5743FAA0DB2A96C2A0F2C28DD ====
[teatrix.ru].t14766.torrent 
Торрент: Зарегистрирован [ 2016-02-09 12:50 ] · 870AE70018EB8954719061128C145723704D702F

Скачать .torrent

Скачать

23 KB

Статус: проверено
Скачан: 1 раз
Размер: 1.03 GB
terms.php



Быстрый ответ

Имя:

      
Для отправки сообщений необходимо включить JavaScript
Показать сообщения:    

Текущее время: 10-Дек 17:45

Часовой пояс: UTC + 3


Вы можете начинать темы
Вы можете отвечать на сообщения
Вы не можете редактировать свои сообщения
Вы не можете удалять свои сообщения
Вы не можете голосовать в опросах
Вы не можете прикреплять файлы к сообщениям
Вы можете скачивать файлы