(Classical) Franz Xaver Scharwenka - Piano Concerto No.4; Polish National Dances - Francois Xavier Poizat, Poznan Philharmonic Orchestra, Lukasz Borowicz - 2011, FLAC (image+.cue) lossless


Статистика раздачи [Обновить пиров]
Размер:  239 MB   |    Зарегистрирован:  10 месяцев 1 день   |    Скачан:  0 раз

Полного источника не было: Никогда

Личеров:  3  [  0 KB/s  ]   Подробная статистика пиров
 
   
 
 
 

[Цитировать]

Franz Xaver Scharwenka - Piano Concerto No.4; Polish National Dances - François Xavier Poizat, Poznań Philharmonic Orchestra, Łukasz Borowicz
Жанр: Classical
Год издания диска: 2011
Издатель (лейбл): Naxos
Номер по каталогу: 8.572637
Дата записи: 2009
Аудиокодек: FLAC
Тип рипа: image+.cue
Битрейт аудио: lossless
Продолжительность: 67:27
Источник: собственный рип
Наличие сканов в содержимом раздачи: да
Треклист:
Franz Xaver Scharwenka (1850-1924)
[1]-[4] Piano Concerto No. 4 in F minor, Op. 82
[5] Mataswintha – Opera: Overture
[6] Cello Sonata in E minor, Op. 46: II. Andante religioso
(arr. for harp, organ and strings, Op. 46a)
[7]-[9] Polish National Dances, Op. 3 (excerpts)
Исполнители:
François Xavier Poizat piano ([1]-[4], [7]-[9])
Poznań Philharmonic Orchestra ([1]-[6])
Łukasz Borowicz ([1]-[6])

Лог создания рипа

Exact Audio Copy V1.0 beta 3 from 29. August 2011
EAC extraction logfile from 28. April 2015, 1:45
Francois Xavier Poizat, Poznan PO, Lukasz Borowicz / Scharwenka - Piano Concerto No.4
Used drive : HL-DT-STDVDRAM GU70N Adapter: 0 ID: 0
Read mode : SecureUtilize accurate stream : YesDefeat audio cache : YesMake use of C2 pointers : No
Read offset correction : 48Overread into Lead-In and Lead-Out : NoFill up missing offset samples with silence : YesDelete leading and trailing silent blocks : NoNull samples used in CRC calculations : YesUsed interface : Native Win32 interface for Win NT & 2000
Used output format : User Defined EncoderSelected bitrate : 128 kBit/sQuality : HighAdd ID3 tag : NoCommand line compressor : C:\Program Files (x86)\Exact Audio Copy\Flac\flac.exeAdditional command line options : -V -8 -T "Date=%year%" -T "Genre=%genre%" %source%
TOC of the extracted CD
Track | Start | Length | Start sector | End sector --------------------------------------------------------- 1 | 0:00.00 | 19:26.18 | 0 | 87467 2 | 19:26.18 | 7:02.58 | 87468 | 119175 3 | 26:29.01 | 9:17.10 | 119176 | 160960 4 | 35:46.11 | 6:55.20 | 160961 | 192105 5 | 42:41.31 | 7:17.10 | 192106 | 224890 6 | 49:58.41 | 6:36.62 | 224891 | 254652 7 | 56:35.28 | 3:58.34 | 254653 | 272536 8 | 60:33.62 | 3:43.50 | 272537 | 289311 9 | 64:17.37 | 3:07.38 | 289312 | 303374
Range status and errors
Selected range
Filename C:\temp\Naxos_8.572637 - Scharwenka - Piano Concerto No.4\Scharwenka - Piano Concerto No.4.wav
Peak level 99.1 % Extraction speed 2.3 X Range quality 100.0 % Test CRC FA57E160 Copy CRC FA57E160 Copy OK
No errors occurred
AccurateRip summary
Track 1 accurately ripped (confidence 1) [0A7AFF52] (AR v2)Track 2 accurately ripped (confidence 1) [A6CF5B9A] (AR v2)Track 3 accurately ripped (confidence 1) [D828CA6A] (AR v2)Track 4 accurately ripped (confidence 1) [4C679639] (AR v2)Track 5 accurately ripped (confidence 1) [AEA1BF30] (AR v2)Track 6 accurately ripped (confidence 1) [A261442A] (AR v2)Track 7 accurately ripped (confidence 1) [9704BC14] (AR v2)Track 8 accurately ripped (confidence 1) [86EAD432] (AR v2)Track 9 accurately ripped (confidence 1) [54D5761A] (AR v2)
All tracks accurately ripped
End of status report
==== Log checksum 4F550028BE7079138D1F633DC534FE52C10F5B85607AF337638BCDBED2827683 ====
[teatrix.ru].t14768.torrent 
Торрент: Зарегистрирован [ 2016-02-09 12:50 ] · 9967C1972F4C7CCA5B88DA77E5EDADC3AEC60562

Скачать .torrent

Скачать

39 KB

Статус: проверено
Скачан: 0 раз
Размер: 239 MB
terms.php



Быстрый ответ

Имя:

      
Для отправки сообщений необходимо включить JavaScript
Показать сообщения:    

Текущее время: 10-Дек 23:30

Часовой пояс: UTC + 3


Вы можете начинать темы
Вы можете отвечать на сообщения
Вы не можете редактировать свои сообщения
Вы не можете удалять свои сообщения
Вы не можете голосовать в опросах
Вы не можете прикреплять файлы к сообщениям
Вы можете скачивать файлы