(Chamber, Concert) Вадим Новиков - труба: Чайковский • Гедике • Рахманинов • Рубинштейн • Torelli • Honegger • Hindemith • Enescu • Martini • Albinoni - Giazotto • Mozart - 2014, FLAC (image+.cue) lossless


 

[Цитировать]

Vadim Novikov - trumpet
Torelli • Tchaikovsky • Rachmaninov • Rubinstein • Goedicke
Honegger • Hindemith • Enescu • Martini • Albinoni - Giazotto • Mozart
-
-
- Жанр: Chamber, Concert
Страна-производитель диска: Россия
Год издания диска: 2014
Издатель (лейбл): SMC
Дата записи: 1959-2007
Аудиокодек: FLAC
Тип рипа: image+.cue
Битрейт аудио: lossless
Продолжительность: 71'55''
Источник: собственный рип
Наличие сканов в содержимом раздачи: да
Треклист:
[01] G.Torelli - Trumpet concerto: I. Allegro
[02] II. Adagio
[03] III. Allegretto
[04] Петр Чайковский - Сентиментальный вальс, соч.51 №6
[05] »День ли царит«, соч.47, №6
[06] Неаполитанский танец из балета »Лебединое озеро«
[07] Сергей Рахманинов - Вокализ
[08] »Вешние воды«, соч.14 №11
[09] Антон Рубинштейн - Мелодия фа мажор, соч.3 №1
[10] Романс »Ночи в Санкт-Петербурге«
[11] Ф.Гедике - Прелюдия фа минор
[12] A.Honegger - Intrada
[13] Paul Hindemith - Sonata for Trumpet and Piano: I. Mit Kraft
[14] II. Mässig bewegt
[15] III. Trauermusik und Chorale
[16] G.Enescu - Legende
[17] G.B.Martini - Toccata D-Dur
[18] Tomaso Albinoni (R.Giazotto) - Adagio g-moll
[19] Wolfgang Amadeus Mozart - Arie der Königin der Nacht aus »Die Zauberflöte«
Исполнители:
Вадим Новиков - труба
Борис Романов [17] • Алексей Шмитов [18] - орган
Светлана Оруджева [4, 7-12, 16] • Юлия Коган [5-6] • Михаил Мишин [13-15] - фортепиано
Московский камерный Оркестр - Анатолий Кнорре [1-3]
Оркестр Студентов Московской Консерватории - Леонид Николаев [19]-

Лог создания рипа

Exact Audio Copy V1.1 from 23. June 2015
EAC extraction logfile from 7. February 2016, 18:23
Vadim Novikov / Music for Trumpet
Used drive : TEAC CD-W540E Adapter: 1 ID: 1
Read mode : SecureUtilize accurate stream : YesDefeat audio cache : YesMake use of C2 pointers : No
Read offset correction : 686Overread into Lead-In and Lead-Out : NoFill up missing offset samples with silence : YesDelete leading and trailing silent blocks : NoNull samples used in CRC calculations : YesUsed interface : Native Win32 interface for Win NT & 2000
Used output format : User Defined EncoderSelected bitrate : 896 kBit/sQuality : HighAdd ID3 tag : NoCommand line compressor : C:\Program Files\flac-1.3.1pre1-win\win64\flac.exeAdditional command line options : -T "COMMENT=rip by el coronel" -8 -V %source%
TOC of the extracted CD
Track | Start | Length | Start sector | End sector --------------------------------------------------------- 1 | 0:00.00 | 2:14.47 | 0 | 10096 2 | 2:14.47 | 3:45.13 | 10097 | 26984 3 | 5:59.60 | 2:30.25 | 26985 | 38259 4 | 8:30.10 | 1:54.38 | 38260 | 46847 5 | 10:24.48 | 3:13.50 | 46848 | 61372 6 | 13:38.23 | 2:29.21 | 61373 | 72568 7 | 16:07.44 | 3:15.44 | 72569 | 87237 8 | 19:23.13 | 2:20.51 | 87238 | 97788 9 | 21:43.64 | 2:58.05 | 97789 | 111143 10 | 24:41.69 | 2:59.04 | 111144 | 124572 11 | 27:40.73 | 2:31.22 | 124573 | 135919 12 | 30:12.20 | 4:09.72 | 135920 | 154666 13 | 34:22.17 | 6:14.68 | 154667 | 182784 14 | 40:37.10 | 2:04.04 | 182785 | 192088 15 | 42:41.14 | 8:04.06 | 192089 | 228394 16 | 50:45.20 | 7:01.06 | 228395 | 259975 17 | 57:46.26 | 2:32.69 | 259976 | 271444 18 | 60:19.20 | 8:33.34 | 271445 | 309953 19 | 68:52.54 | 3:02.04 | 309954 | 323607
Range status and errors
Selected range
Filename F:\Music\Vadim Novikov - Music for Trumpet (Torelli, Hindemith, Goedicke)\CD.wav
Peak level 92.7 % Extraction speed 5.0 X Range quality 100.0 % Test CRC A935B729 Copy CRC A935B729 Copy OK
No errors occurred
AccurateRip summary
Track 1 not present in databaseTrack 2 not present in databaseTrack 3 not present in databaseTrack 4 not present in databaseTrack 5 not present in databaseTrack 6 not present in databaseTrack 7 not present in databaseTrack 8 not present in databaseTrack 9 not present in databaseTrack 10 not present in databaseTrack 11 not present in databaseTrack 12 not present in databaseTrack 13 not present in databaseTrack 14 not present in databaseTrack 15 not present in databaseTrack 16 not present in databaseTrack 17 not present in databaseTrack 18 not present in databaseTrack 19 not present in database
None of the tracks are present in the AccurateRip database
End of status report
---- CUETools DB Plugin V2.1.6
[CTDB TOCID: cWO0mfzenKkUKo.WuKIqIevV3vw-] disk not present in databaseSubmit result: cWO0mfzenKkUKo.WuKIqIevV3vw- has been uploaded
==== Log checksum E494B5FDB2A1A86DD793F3E3B45DC4E2B2BD9AAFC8559820F7853FDA9A343A08 ====

Содержание индексной карты (.CUE)

REM GENRE ClassicalREM DATE 2014REM DISCID FA10DA13REM COMMENT "ExactAudioCopy v1.1"PERFORMER "Vadim Novikov"TITLE "Music for Trumpet"FILE "CD.flac" WAVE TRACK 01 AUDIO TITLE "G.Torelli - Trumpet concderto D-Dur: I. Allegro" PERFORMER "V.Novikov; Moscow Chamber Orchestra - A.Knorre" INDEX 01 00:00:00 TRACK 02 AUDIO TITLE "II. Adagio" PERFORMER "V.Novikov; Moscow Chamber Orchestra - A.Knorre" INDEX 01 02:14:47 TRACK 03 AUDIO TITLE "III. Allegretto" PERFORMER "V.Novikov; Moscow Chamber Orchestra - A.Knorre" INDEX 01 05:59:60 TRACK 04 AUDIO TITLE "P.Tchaikovsky - Valse sentimentale, op.51 no.6" PERFORMER "V.Novikov, S.Orudzheva" INDEX 01 08:30:10 TRACK 05 AUDIO TITLE "'Whether the day reigns', op.47, no.6" PERFORMER "V.Novikov, Y.Kogan" INDEX 01 10:24:48 TRACK 06 AUDIO TITLE "Neapolitan dance from 'Swan lake'" PERFORMER "V.Novikov, Y.Kogan" INDEX 01 13:38:23 TRACK 07 AUDIO TITLE "S.Rachmaninov - Vocalize" PERFORMER "V.Novikov, S.Orudzheva" INDEX 01 16:07:44 TRACK 08 AUDIO TITLE "Spring watrs, op.14 no.11" PERFORMER "V.Novikov, S.Orudzheva" INDEX 01 19:23:13 TRACK 09 AUDIO TITLE "A.Rubinstein - Melody F-Dur, op.3 no.1" PERFORMER "V.Novikov, S.Orudzheva" INDEX 01 21:43:64 TRACK 10 AUDIO TITLE "Romance 'Soirees a Saint-Petersbourg'" PERFORMER "V.Novikov, S.Orudzheva" INDEX 01 24:41:69 TRACK 11 AUDIO TITLE "F.Goedicke - Prelude f-moll" PERFORMER "V.Novikov, S.Orudzheva" INDEX 01 27:40:73 TRACK 12 AUDIO TITLE "A.Honegger - Intrada" PERFORMER "V.Novikov, S.Orudzheva" INDEX 01 30:12:20 TRACK 13 AUDIO TITLE "P.Hindemith - Sonata for Trumpet and Piano: I. Mit Kraft" PERFORMER "V.Novikov, M.Mishin" INDEX 01 34:22:17 TRACK 14 AUDIO TITLE "II. Massig bewegt" PERFORMER "V.Novikov, M.Mishin" INDEX 01 40:37:10 TRACK 15 AUDIO TITLE "III. Trauermusik und Chorale" PERFORMER "V.Novikov, M.Mishin" INDEX 01 42:41:14 TRACK 16 AUDIO TITLE "G.Enescu - Legende" PERFORMER "V.Novikov, S.Orudzheva" INDEX 01 50:45:20 TRACK 17 AUDIO TITLE "G.B.Martini - Toccata D-Dur" PERFORMER "V.Novikov, B.Romanov" INDEX 01 57:46:26 TRACK 18 AUDIO TITLE "T.Albinoni (R.Giazotto) - Adagio g-moll" PERFORMER "V.Novikov, A.Shmitov" INDEX 01 60:19:20 TRACK 19 AUDIO TITLE "W.A.Mozart - Arie der Konigin der Nacht from 'Die Zauberflote'" PERFORMER "V.Novikov; Student Orchestra of Moscow Conservatory - L.Nikolayev" INDEX 01 68:52:54



Показать сообщения:    

Текущее время: 03-Дек 07:36

Часовой пояс: UTC + 3


Вы не можете начинать темы
Вы не можете отвечать на сообщения
Вы не можете редактировать свои сообщения
Вы не можете удалять свои сообщения
Вы не можете голосовать в опросах
Вы не можете прикреплять файлы к сообщениям
Вы не можете скачивать файлы