(Chamber) Глинка • Глиэр • Spohr • Faure • Doppler • Debussy • Connesson • Ibert • Damase - Музыка для арфы, флейты и скрипки (Н.Сергеева | Н.Остапенко | E.Sartori) - 2015, FLAC (image+.cue) lossless


 

[Цитировать]

N.Sergeyeva | N.Ostapenko | E.Sartori
Glinka • Glier • Spohr • Fauré • Doppler
Debussy • Connesson • Ibert • Damase
-
-
- Жанр: Chamber
Страна-производитель диска: Россия
Год издания диска: 2015
Издатель (лейбл): SMC
Дата записи: 30.01.2015
Аудиокодек: FLAC
Тип рипа: image+.cue
Битрейт аудио: lossless
Продолжительность: 70'47''
Источник: собственный рип
Наличие сканов в содержимом раздачи: да
Треклист:
[01] МихаилГлинка - Вариации на тему Моцарта
[02] L.Spohr - Sonate for Violin and Harp: I. Adagio
[03] II. Allegro vivace
[04] III. Andante
[05] IV. Allegro
[06] V. Andante
[07] VI. Allegro
[08] Рейнгольд Глиэр - Экспромт для арфы
[09] Gabriel Faure - »Apres un reve« for Violin and Harp
[10] F.Doppler (A.Zamara) - »Casilda Fantasy« for Flute and Harp
[11] J.-M.Damase - Sonate for Flute and Harp No.1 (excerpts): I. Allegro moderato
[12] II. Andante con moto
[13] Claude Debussy - »Syrinx« for Flute
[14] G.Connesson - Toccata for Harp
[15] J.Ibert - Two interludes for Harp, Flute and Violin: I. Andante espressivo
[16] II. Allegro vivo
Исполнители:
Надежда Сергеева - арфа
Надежда Остапенко - скрипка
Enrico Sartori - флейта-

Лог создания рипа

Exact Audio Copy V1.1 from 23. June 2015
EAC extraction logfile from 5. February 2016, 23:51
N.Sergeyeva, N.Ostapenko, E,Satori / Music for Flute, harp and Violin
Used drive : PHILIPS PCRW804 Adapter: 1 ID: 2
Read mode : SecureUtilize accurate stream : YesDefeat audio cache : YesMake use of C2 pointers : No
Read offset correction : -436Overread into Lead-In and Lead-Out : NoFill up missing offset samples with silence : YesDelete leading and trailing silent blocks : NoNull samples used in CRC calculations : YesUsed interface : Native Win32 interface for Win NT & 2000
Used output format : User Defined EncoderSelected bitrate : 1024 kBit/sQuality : HighAdd ID3 tag : NoCommand line compressor : C:\flac-1.3.1pre1-win\win64\flac.exeAdditional command line options : -T "COMMENT=rip by el coronel" -8 -V %source%
TOC of the extracted CD
Track | Start | Length | Start sector | End sector --------------------------------------------------------- 1 | 0:00.00 | 7:03.72 | 0 | 31796 2 | 7:03.72 | 1:47.30 | 31797 | 39851 3 | 8:51.27 | 6:12.31 | 39852 | 67782 4 | 15:03.58 | 1:22.53 | 67783 | 73985 5 | 16:26.36 | 4:53.43 | 73986 | 96003 6 | 21:20.04 | 1:19.65 | 96004 | 101993 7 | 22:39.69 | 1:09.74 | 101994 | 107242 8 | 23:49.68 | 4:02.10 | 107243 | 125402 9 | 27:52.03 | 3:33.41 | 125403 | 141418 10 | 31:25.44 | 11:17.48 | 141419 | 192241 11 | 42:43.17 | 6:57.46 | 192242 | 223562 12 | 49:40.63 | 5:34.31 | 223563 | 248643 13 | 55:15.19 | 3:08.51 | 248644 | 262794 14 | 58:23.70 | 4:14.40 | 262795 | 281884 15 | 62:38.35 | 3:42.04 | 281885 | 298538 16 | 66:20.39 | 4:26.36 | 298539 | 318524
Range status and errors
Selected range
Filename F:\Music\Music for Flute, Harp and Violin (Faure, Debussy, Gliere)\CD.wav
Peak level 94.7 % Extraction speed 2.2 X Range quality 100.0 % Test CRC BCCFAF49 Copy CRC BCCFAF49 Copy OK
No errors occurred
AccurateRip summary
Track 1 not present in databaseTrack 2 not present in databaseTrack 3 not present in databaseTrack 4 not present in databaseTrack 5 not present in databaseTrack 6 not present in databaseTrack 7 not present in databaseTrack 8 not present in databaseTrack 9 not present in databaseTrack 10 not present in databaseTrack 11 not present in databaseTrack 12 not present in databaseTrack 13 not present in databaseTrack 14 not present in databaseTrack 15 not present in databaseTrack 16 not present in database
None of the tracks are present in the AccurateRip database
End of status report
---- CUETools DB Plugin V2.1.6
[CTDB TOCID: 7m7Qg5Y759L5.YoUVZTuMdtXiKc-] disk not present in databaseSubmit result: 7m7Qg5Y759L5.YoUVZTuMdtXiKc- has been uploaded
==== Log checksum 5E0C853450979AF5BCEDEA885C768C2383BB3B5E9E9E48DC00643783471D5765 ====

Содержание индексной карты (.CUE)

REM GENRE ClassicalREM DATE 2015REM DISCID F2109710REM COMMENT ExactAudioCopy v1.1PERFORMER "N.Sergeyeva, N.Ostapenko, E.Satori"TITLE "Music for Flute, Harp and Violin"FILE "CD.flac" WAVE TRACK 01 AUDIO TITLE "M.Glinka - Mozart variations Es-Dur for Harp" INDEX 01 00:00:00 TRACK 02 AUDIO TITLE "L.Spohr - Sonate for Violin and Harp c-moll: I. Adagio" INDEX 01 07:03:72 TRACK 03 AUDIO TITLE "II. Allegro vivace" INDEX 01 08:51:27 TRACK 04 AUDIO TITLE "III. Andante" INDEX 01 15:03:58 TRACK 05 AUDIO TITLE "IV. Allegro" INDEX 01 16:26:36 TRACK 06 AUDIO TITLE "V. Andante" INDEX 01 21:20:04 TRACK 07 AUDIO TITLE "VI. Allegro" INDEX 01 22:39:69 TRACK 08 AUDIO TITLE "R.Gliere - Impromptu for Harp" INDEX 01 23:49:68 TRACK 09 AUDIO TITLE "G.Faure - 'Apres un reve' for Violin and Harp" INDEX 01 27:52:03 TRACK 10 AUDIO TITLE "F.Doppler (A.Zamara) - 'Casilda Fantasy' for Flute and Harp" INDEX 01 31:25:44 TRACK 11 AUDIO TITLE "J.-M.Damase - Sonate for Flute and Harp No.1 (excerpts): I. Allegro moderato" INDEX 01 42:43:17 TRACK 12 AUDIO TITLE "II. Andante con moto" INDEX 01 49:40:63 TRACK 13 AUDIO TITLE "C.Debussy - 'Syrinx' for Flute" INDEX 01 55:15:19 TRACK 14 AUDIO TITLE "G.Connesson - Toccata for Harp" INDEX 01 58:23:70 TRACK 15 AUDIO TITLE "J.Ibert - Two interludes for Harp, Flute and Violin: I. Andante espressivo" INDEX 01 62:38:35 TRACK 16 AUDIO TITLE "II. Allegro vivo" INDEX 01 66:20:39



Показать сообщения:    

Текущее время: 02-Дек 23:08

Часовой пояс: UTC + 3


Вы не можете начинать темы
Вы не можете отвечать на сообщения
Вы не можете редактировать свои сообщения
Вы не можете удалять свои сообщения
Вы не можете голосовать в опросах
Вы не можете прикреплять файлы к сообщениям
Вы не можете скачивать файлы