(Classical, Chamber Music, Le Chant du Monde) Dmitri Yanov-Yanovsky / Янов Яновский - Twilight Music / Six lost waltzes by Chopin / Insomnia / Notturno / Hearing Solution (The Moscow Contemporary Music Ensemble) - 2005, FLAC (tracks+.cue) lossless


 

[Цитировать]

Dmitri Yanov-Yanovsky
"Twilight Music / Six lost waltzes by Chopin /
Insomnia / Notturno / Hearing Solution"--The Moscow Contemporary Music Ensemble
Jean Thorel (conductor)


Recorded: Studio Mosfilm, Moscow (29.06 & 01.07, 2004)
Label: Le Chant du Monde | CD LDC 2781145 | France
Аудио: FLAC | tracks+.cue | lossless | CD
Наличие сканов в раздаче: да (600dpi)
Жанр: Classical | Chamber Music
Источник: whatCD
2005

Время звучания 01.20.56


-
  • /01/ TWILIGHT MUSIC {13:32}
  • /02-07/ SIX LOST WALTZES by CHOPIN: {14:06}
    ... 02 Waltz in E flat major (1829-1830)
    ... 03 Waltz in A flat major (1829-1830)
    ... 04 Waltz in A flat major (1827)
    ... 05 Waltz in C major (1831)
    ... 06 Waltz in D minor (1827)
    ... 07 Waltz in C major (1826)

  • /08-12/ INSOMNIA: {20:41}
    ... 08 Insomnia I
    ... 09 Insomnia II
    ... 10 Insomnia III
    ... 11 Insomnia IV
    ... 12 Insomnia V

  • /13/ NOTTURNO {10:42}
  • /14/ HEARNING SOLUTION {21:55}
    -
    -/01/ for flute, oboe, clarinet, percussion, harp, guitar, mandolin, piano, violin, viola, cello & double bass
    /02-07/ for four-handed piano
    /08-12/ for mezzo-soprano, flute, clarinet, piano, violin, viola & cello; (text: Marina Tsvetaieva)
    /13/ for flute, oboe, clarinet, bassoon, horn, trumpet, trombone, percussion, harp, piano, 2 violins, viola, cello & double bass
    /14/ for cello solo, ensemble (harp, 2 violins, viola, cello, double bass, piano, 2 percussion)
    -

    log

    Exact Audio Copy V1.0 beta 3 from 29. August 2011
    EAC extraction logfile from 25. November 2015, 13:20
    Moscow Contemporary Music Ensemble, Jean Thorel / Twilight Music
    Used drive : hp DVD-RAM GHB0N Adapter: 0 ID: 0
    Read mode : SecureUtilize accurate stream : YesDefeat audio cache : YesMake use of C2 pointers : No
    Read offset correction : 6Overread into Lead-In and Lead-Out : NoFill up missing offset samples with silence : YesDelete leading and trailing silent blocks : NoNull samples used in CRC calculations : YesUsed interface : Native Win32 interface for Win NT & 2000Gap handling : Appended to previous track
    Used output format : User Defined EncoderSelected bitrate : 1024 kBit/sQuality : HighAdd ID3 tag : NoCommand line compressor : C:\Program Files (x86)\Exact Audio Copy\Flac\flac.exeAdditional command line options : -8 -V -T "ARTIST=%artist%" -T "TITLE=%title%" -T "ALBUM=%albumtitle%" -T "DATE=%year%" -T "TRACKNUMBER=%tracknr%" -T "GENRE=%genre%" -T "PERFORMER=%albuminterpret%" -T "COMPOSER=%composer%" %haslyrics%--tag-from-file=LYRICS="%lyricsfile%"%haslyrics% -T "ALBUMARTIST=%albumartist%" -T "DISCNUMBER=%cdnumber%" -T "TOTALDISCS=%totalcds%" -T "TOTALTRACKS=%numtracks%" -T "COMMENT=%comment%" %source% -o %dest%
    TOC of the extracted CD
    Track | Start | Length | Start sector | End sector --------------------------------------------------------- 1 | 0:00.00 | 13:32.21 | 0 | 60920 2 | 13:32.21 | 2:38.14 | 60921 | 72784 3 | 16:10.35 | 1:59.70 | 72785 | 81779 4 | 18:10.30 | 2:30.58 | 81780 | 93087 5 | 20:41.13 | 2:36.05 | 93088 | 104792 6 | 23:17.18 | 2:55.40 | 104793 | 117957 7 | 26:12.58 | 1:25.01 | 117958 | 124333 8 | 27:37.59 | 4:44.36 | 124334 | 145669 9 | 32:22.20 | 5:18.52 | 145670 | 169571 10 | 37:40.72 | 4:11.04 | 169572 | 188400 11 | 41:52.01 | 2:00.72 | 188401 | 197472 12 | 43:52.73 | 4:25.25 | 197473 | 217372 13 | 48:18.23 | 10:41.47 | 217373 | 265494 14 | 58:59.70 | 21:54.50 | 265495 | 364094
    Track 1
    Filename E:\WHAT.CD\000TEMP\Yanov-Yanovsky, Twilight Music - Jean Thorel (2005) [FLAC]\01 - Twilight Music.wav
    Pre-gap length 0:00:02.00
    Peak level 100.0 % Extraction speed 2.5 X Track quality 100.0 % Test CRC 43A3E2FD Copy CRC 43A3E2FD Track not present in AccurateRip database Copy OK
    Track 2
    Filename E:\WHAT.CD\000TEMP\Yanov-Yanovsky, Twilight Music - Jean Thorel (2005) [FLAC]\02 - Six Lost Waltzes of Chopin - 1.Waltz in E flat major.wav
    Pre-gap length 0:00:04.41
    Peak level 43.6 % Extraction speed 2.4 X Track quality 100.0 % Test CRC 6A9AC459 Copy CRC 6A9AC459 Track not present in AccurateRip database Copy OK
    Track 3
    Filename E:\WHAT.CD\000TEMP\Yanov-Yanovsky, Twilight Music - Jean Thorel (2005) [FLAC]\03 - Six Lost Waltzes of Chopin - 2.Waltz in A flat major.wav
    Pre-gap length 0:00:02.45
    Peak level 68.1 % Extraction speed 2.3 X Track quality 100.0 % Test CRC 146E2A07 Copy CRC 146E2A07 Track not present in AccurateRip database Copy OK
    Track 4
    Filename E:\WHAT.CD\000TEMP\Yanov-Yanovsky, Twilight Music - Jean Thorel (2005) [FLAC]\04 - Six Lost Waltzes of Chopin - 3.Waltz in A flat major.wav
    Peak level 54.8 % Extraction speed 2.5 X Track quality 100.0 % Test CRC F33E576A Copy CRC F33E576A Track not present in AccurateRip database Copy OK
    Track 5
    Filename E:\WHAT.CD\000TEMP\Yanov-Yanovsky, Twilight Music - Jean Thorel (2005) [FLAC]\05 - Six Lost Waltzes of Chopin - 4.Waltz in C major.wav
    Peak level 36.8 % Extraction speed 2.6 X Track quality 100.0 % Test CRC D9E9EA8B Copy CRC D9E9EA8B Track not present in AccurateRip database Copy OK
    Track 6
    Filename E:\WHAT.CD\000TEMP\Yanov-Yanovsky, Twilight Music - Jean Thorel (2005) [FLAC]\06 - Six Lost Waltzes of Chopin - 5.Waltz in D minor.wav
    Peak level 89.0 % Extraction speed 2.7 X Track quality 100.0 % Test CRC FA026524 Copy CRC FA026524 Track not present in AccurateRip database Copy OK
    Track 7
    Filename E:\WHAT.CD\000TEMP\Yanov-Yanovsky, Twilight Music - Jean Thorel (2005) [FLAC]\07 - Six Lost Waltzes of Chopin - 6.Waltz in C major.wav
    Peak level 69.1 % Extraction speed 1.8 X Track quality 99.8 % Test CRC 12653C29 Copy CRC 12653C29 Track not present in AccurateRip database Copy OK
    Track 8
    Filename E:\WHAT.CD\000TEMP\Yanov-Yanovsky, Twilight Music - Jean Thorel (2005) [FLAC]\08 - Insomnia - I.wav
    Pre-gap length 0:00:03.84
    Peak level 93.0 % Extraction speed 3.1 X Track quality 100.0 % Test CRC 3F4A28D2 Copy CRC 3F4A28D2 Track not present in AccurateRip database Copy OK
    Track 9
    Filename E:\WHAT.CD\000TEMP\Yanov-Yanovsky, Twilight Music - Jean Thorel (2005) [FLAC]\09 - Insomnia - II.wav
    Pre-gap length 0:00:03.96
    Peak level 77.2 % Extraction speed 3.0 X Track quality 99.9 % Test CRC 2B8A6AE5 Copy CRC 2B8A6AE5 Track not present in AccurateRip database Copy OK
    Track 10
    Filename E:\WHAT.CD\000TEMP\Yanov-Yanovsky, Twilight Music - Jean Thorel (2005) [FLAC]\10 - Insomnia - III.wav
    Peak level 75.9 % Extraction speed 3.4 X Track quality 100.0 % Test CRC 940F7660 Copy CRC 940F7660 Track not present in AccurateRip database Copy OK
    Track 11
    Filename E:\WHAT.CD\000TEMP\Yanov-Yanovsky, Twilight Music - Jean Thorel (2005) [FLAC]\11 - Insomnia - IV.wav
    Pre-gap length 0:00:02.78
    Peak level 86.5 % Extraction speed 3.0 X Track quality 100.0 % Test CRC 4BF8DB18 Copy CRC 4BF8DB18 Track not present in AccurateRip database Copy OK
    Track 12
    Filename E:\WHAT.CD\000TEMP\Yanov-Yanovsky, Twilight Music - Jean Thorel (2005) [FLAC]\12 - Insomnia - V.wav
    Pre-gap length 0:00:02.29
    Peak level 74.4 % Extraction speed 3.6 X Track quality 100.0 % Test CRC BADDF903 Copy CRC BADDF903 Track not present in AccurateRip database Copy OK
    Track 13
    Filename E:\WHAT.CD\000TEMP\Yanov-Yanovsky, Twilight Music - Jean Thorel (2005) [FLAC]\13 - Notturno.wav
    Pre-gap length 0:00:04.04
    Peak level 64.4 % Extraction speed 4.1 X Track quality 100.0 % Test CRC 5C81A96A Copy CRC 5C81A96A Track not present in AccurateRip database Copy OK
    Track 14
    Filename E:\WHAT.CD\000TEMP\Yanov-Yanovsky, Twilight Music - Jean Thorel (2005) [FLAC]\14 - Hearing Solution.wav
    Pre-gap length 0:00:04.00
    Peak level 93.7 % Extraction speed 4.6 X Track quality 100.0 % Test CRC 4B2AA84A Copy CRC 4B2AA84A Track not present in AccurateRip database Copy OK
    None of the tracks are present in the AccurateRip database
    No errors occurred
    End of status report
    ---- CUETools DB Plugin V2.1.3
    [CTDB TOCID: tz3FxHDJ40JJZMfM54TjL6bPzrc-] disk not present in database, Submit result: tz3FxHDJ40JJZMfM54TjL6bPzrc- has been uploaded
    ==== Log checksum 1B8E00DEC9F79155954DF73BCE8BE48FCE24D55AEF87CD288BB5141572B4E51B ====

    cue

    REM GENRE ClassicalREM DATE 2005REM DISCID C412F60EREM COMMENT "ExactAudioCopy v1.0b3"PERFORMER "Moscow Contemporary Music Ensemble, Jean Thorel"TITLE "Twilight Music / Six lost waltzes by Chopin / Insomnia / Notturno / Hearing Solution"FILE "01. Twilight Music.wav" WAVE TRACK 01 AUDIO TITLE "Twilight Music" PERFORMER "Moscow Contemporary Music Ensemble, Jean Thorel" INDEX 01 00:00:00 TRACK 02 AUDIO TITLE "SIX LOST WALTZES OF CHOPIN: 1.Waltz in E flat major" PERFORMER "Mikhail Dubov & Mona Khaba (piano)" INDEX 00 13:27:65FILE "02. SIX LOST WALTZES OF CHOPIN - 1.Waltz in E flat major.wav" WAVE INDEX 01 00:00:00 TRACK 03 AUDIO TITLE "SIX LOST WALTZES OF CHOPIN: 2.Waltz in A flat major" PERFORMER "Mikhail Dubov & Mona Khaba (piano)" INDEX 00 02:35:55FILE "03. SIX LOST WALTZES OF CHOPIN - 2.Waltz in A flat major.wav" WAVE INDEX 01 00:00:00FILE "04. SIX LOST WALTZES OF CHOPIN - 3.Waltz in A flat major.wav" WAVE TRACK 04 AUDIO TITLE "SIX LOST WALTZES OF CHOPIN: 3.Waltz in A flat major" PERFORMER "Mikhail Dubov & Mona Khaba (piano)" INDEX 01 00:00:00FILE "05. SIX LOST WALTZES OF CHOPIN - 4.Waltz in C major.wav" WAVE TRACK 05 AUDIO TITLE "SIX LOST WALTZES OF CHOPIN: 4.Waltz in C major" PERFORMER "Mikhail Dubov & Mona Khaba (piano)" INDEX 01 00:00:00FILE "06. SIX LOST WALTZES OF CHOPIN - 5.Waltz in D minor.wav" WAVE TRACK 06 AUDIO TITLE "SIX LOST WALTZES OF CHOPIN: 5.Waltz in D minor" PERFORMER "Mikhail Dubov & Mona Khaba (piano)" INDEX 01 00:00:00FILE "07. SIX LOST WALTZES OF CHOPIN - 6.Waltz in C major.wav" WAVE TRACK 07 AUDIO TITLE "SIX LOST WALTZES OF CHOPIN: 6.Waltz in C major" PERFORMER "Mikhail Dubov & Mona Khaba (piano)" INDEX 01 00:00:00 TRACK 08 AUDIO TITLE "INSOMNIA: I" PERFORMER "Moscow Contemporary Music Ensemble, Jean Thorel" INDEX 00 01:21:13FILE "08. INSOMNIA - I.wav" WAVE INDEX 01 00:00:00 TRACK 09 AUDIO TITLE "INSOMNIA: II" PERFORMER "Moscow Contemporary Music Ensemble, Jean Thorel" INDEX 00 04:40:39FILE "09. INSOMNIA - II.wav" WAVE INDEX 01 00:00:00FILE "10. INSOMNIA - III.wav" WAVE TRACK 10 AUDIO TITLE "INSOMNIA: III" PERFORMER "Moscow Contemporary Music Ensemble, Jean Thorel" INDEX 01 00:00:00 TRACK 11 AUDIO TITLE "INSOMNIA: IV" PERFORMER "Moscow Contemporary Music Ensemble, Jean Thorel" INDEX 00 04:08:20FILE "11. INSOMNIA - IV.wav" WAVE INDEX 01 00:00:00 TRACK 12 AUDIO TITLE "INSOMNIA: V" PERFORMER "Moscow Contemporary Music Ensemble, Jean Thorel" INDEX 00 01:58:50FILE "12. INSOMNIA - V.wav" WAVE INDEX 01 00:00:00 TRACK 13 AUDIO TITLE "Notturno" PERFORMER "Moscow Contemporary Music Ensemble, Jean Thorel" INDEX 00 04:21:22FILE "13. Notturno.wav" WAVE INDEX 01 00:00:00 TRACK 14 AUDIO TITLE "Hearing Solution" PERFORMER "Moscow Contemporary Music Ensemble, Jean Thorel" INDEX 00 10:37:47FILE "14. Hearing Solution.wav" WAVE INDEX 01 00:00:00



Показать сообщения:    

Текущее время: 11-Дек 16:49

Часовой пояс: UTC + 3


Вы не можете начинать темы
Вы не можете отвечать на сообщения
Вы не можете редактировать свои сообщения
Вы не можете удалять свои сообщения
Вы не можете голосовать в опросах
Вы не можете прикреплять файлы к сообщениям
Вы не можете скачивать файлы