(Classical) Karl Ditters von Dittersdorf - String Quartets, No.1, 3, 4, 5 (Sharon Quartet) - 2004, FLAC (image+.cue) lossless


 

[Цитировать]

Karl Ditters von Dittersdorf - String Quartets (Sharon Quartet)
Жанр: Classical
Страна-производитель диска: Austria / EU
Год издания диска: 2004
Издатель (лейбл): VMS/Zappel Music
Номер по каталогу: VMS 156
Дата записи: 1995
Аудиокодек: FLAC
Тип рипа: image+.cue
Битрейт аудио: lossless
Продолжительность: 61'21''
Источник: собственный рип
Наличие сканов в содержимом раздачи: да
Треклист:
No.1 in D Major
1. I. Modeerato / 6:24
2. II. Menuetto / 4:36
3. III. Finale. Allegro / 3:08
No.3 in G Major
4. I. Modeerato / 7:37
5. II. Menuetto. Moderato / 5:56
6. III. Finale. Presto / 4:56
No.4 in C Major
7. I. Allegro / 6:09
8. II. Menuetto. Allegro / 3:03
9. III. Andante / 6:40
No.5 in E-flat Major
10. I. Allegro / 7:31
11. II. Menuetto / 4:16
12. III. Finale. Allegro / 4:10
Исполнители:
The Sharon Quartet

Лог создания рипа

Exact Audio Copy V1.0 beta 3 from 29. August 2011
EAC extraction logfile from 20. October 2015, 15:22
Unknown Artist / Unknown Title
Used drive : TSSTcorpCDDVDW SH-224DB Adapter: 0 ID: 0
Read mode : SecureUtilize accurate stream : YesDefeat audio cache : NoMake use of C2 pointers : Yes
Read offset correction : 6Overread into Lead-In and Lead-Out : NoFill up missing offset samples with silence : YesDelete leading and trailing silent blocks : NoNull samples used in CRC calculations : YesUsed interface : Native Win32 interface for Win NT & 2000
Used output format : User Defined EncoderSelected bitrate : 896 kBit/sQuality : HighAdd ID3 tag : NoCommand line compressor : C:\Users\멀티22\Desktop\새 폴더\App\EAC\Flac\flac.exeAdditional command line options : -8 -V -T "ARTIST=%artist%" -T "TITLE=%title%" -T "ALBUM=%albumtitle%" -T "DATE=%year%" -T "TRACKNUMBER=%tracknr%" -T "GENRE=%genre%" -T "PERFORMER=%albuminterpret%" -T "COMPOSER=%composer%" %haslyrics%–tag-from-file=LYRICS="%lyricsfile%"%haslyrics% -T "ALBUMARTIST=%albumartist%" -T "DISCNUMBER=%cdnumber%" -T "TOTALDISCS=%totalcds%" -T "TOTALTRACKS=%numtracks%" -T "COMMENT=%comment%" %source% -o %dest%
TOC of the extracted CD
Track | Start | Length | Start sector | End sector --------------------------------------------------------- 1 | 0:00.00 | 6:28.41 | 0 | 29140 2 | 6:28.41 | 4:40.28 | 29141 | 50168 3 | 11:08.69 | 3:18.36 | 50169 | 65054 4 | 14:27.30 | 7:41.57 | 65055 | 99686 5 | 22:09.12 | 5:59.05 | 99687 | 126616 6 | 28:08.17 | 5:07.70 | 126617 | 149711 7 | 33:16.12 | 6:11.18 | 149712 | 177554 8 | 39:27.30 | 3:05.55 | 177555 | 191484 9 | 42:33.10 | 6:51.39 | 191485 | 222348 10 | 49:24.49 | 7:36.13 | 222349 | 256561 11 | 57:00.62 | 4:19.74 | 256562 | 276060 12 | 61:20.61 | 4:10.66 | 276061 | 294876
Range status and errors
Selected range
Filename C:\Users\멀티22\Desktop\새 폴더\CDImage.wav
Peak level 93.7 % Extraction speed 19.7 X Range quality 100.0 % Test CRC 4B0F8DDF Copy CRC 4B0F8DDF Copy OK
No errors occurred
End of status report
---- CUETools DB Plugin V2.1.3
[CTDB TOCID: OqvBcyqbUme.Y.gxmcpebWSY23g-] disk not present in database, Submit result: OqvBcyqbUme.Y.gxmcpebWSY23g- has been uploaded
==== Log checksum FFEA5F2DE4067801E6633EB2A0D05CDDF888C043A55CF413E50A7B2B3142B9E4 ====

Содержание индексной карты (.CUE)

REM DISCID BF0F5B0CREM COMMENT "ExactAudioCopy v1.0b3"PERFORMER "Sharon Quartet"TITLE "Karl Ditters von Dittersdorf - String Quartets (Sharon Quartet)"FILE "CDImage.flac" WAVE TRACK 01 AUDIO TITLE "No.1 in D Major - I. Moderato" PERFORMER "Sharon Quartet" INDEX 01 00:00:00 TRACK 02 AUDIO TITLE "II. Menuetto" PERFORMER "Sharon Quartet" INDEX 01 06:28:41 TRACK 03 AUDIO TITLE "III. Finale. Allegro" PERFORMER "Sharon Quartet" INDEX 01 11:08:69 TRACK 04 AUDIO TITLE "No.3 in G Major - I. Modeerato" PERFORMER "Sharon Quartet" INDEX 00 14:18:32 INDEX 01 14:27:30 TRACK 05 AUDIO TITLE "II. Menuetto. Moderato" PERFORMER "Sharon Quartet" INDEX 01 22:09:12 TRACK 06 AUDIO TITLE "III. Finale. Presto" PERFORMER "Sharon Quartet" INDEX 01 28:08:17 TRACK 07 AUDIO TITLE "No.4 in C Major - I. Allegro" PERFORMER "Sharon Quartet" INDEX 00 33:06:28 INDEX 01 33:16:12 TRACK 08 AUDIO TITLE "II. Menuetto. Allegro" PERFORMER "Sharon Quartet" INDEX 01 39:27:30 TRACK 09 AUDIO TITLE "III. Andante" PERFORMER "Sharon Quartet" INDEX 01 42:33:10 TRACK 10 AUDIO TITLE "No.5 in E-flat Major - I. Allegro" PERFORMER "Sharon Quartet" INDEX 00 49:15:39 INDEX 01 49:24:49 TRACK 11 AUDIO TITLE "II. Menuetto" PERFORMER "Sharon Quartet" INDEX 01 57:00:62 TRACK 12 AUDIO TITLE "III. Finale. Allegro" PERFORMER "Sharon Quartet" INDEX 01 61:20:61



Показать сообщения:    

Текущее время: 07-Дек 21:23

Часовой пояс: UTC + 3


Вы не можете начинать темы
Вы не можете отвечать на сообщения
Вы не можете редактировать свои сообщения
Вы не можете удалять свои сообщения
Вы не можете голосовать в опросах
Вы не можете прикреплять файлы к сообщениям
Вы не можете скачивать файлы