(Classical) Brahms & Bruckner - String Quintets (Brandis Quartett, Brett Dean) - 1996, FLAC (image+.cue) lossless


 

[Цитировать]

Brahms & Bruckner - String Quintets (Brandis Quartett, Brett Dean)
Жанр: Classical
Страна-производитель диска: UK
Год издания диска: 1996
Издатель (лейбл): Nimbus Records
Номер по каталогу: NI 5488
Дата записи: 1996
Аудиокодек: FLAC
Тип рипа: image+.cue
Битрейт аудио: lossless
Продолжительность: 75.05
Источник: собственный рип
Наличие сканов в содержимом раздачи: да
Треклист:
Brahms - String Quintet in G Major, Op.111
1. I. Allegro non troppo, ma con brio / 13.25
2. II. Adagio / 6.37
3. III. Un poco allegretto / 5.14
4. IV. Vivace ma non troppo presto / 5.10
Bruckner - String Quintet in F Major
5. I. Gemäβigt. Moderato / 12.56
6. II. Scherzo. Schnell - Trio. Langsamer / 7.11
7. III. Adagio / 15.13
8. IV. Finale. Lebhaft bewegt / 9.07
Исполнители:
Brandis Quartett :
Thomas Brandis & Peter Brem, violins
Wilfried Strehle, viola
Wolfgang Boettcher, violoncello

with Brett Dean, viola

Лог создания рипа

Exact Audio Copy V1.0 beta 3 from 29. August 2011
EAC extraction logfile from 6. February 2016, 16:34
Brahms / Bruckner / Brahms: String Quintet, Op. 111 / Bruckner: String Quintet (Brandis Quartet feat. viola Brett Dean)
Used drive : hp CDDVDW SH-216DB Adapter: 0 ID: 0
Read mode : SecureUtilize accurate stream : YesDefeat audio cache : NoMake use of C2 pointers : Yes
Read offset correction : 6Overread into Lead-In and Lead-Out : NoFill up missing offset samples with silence : YesDelete leading and trailing silent blocks : NoNull samples used in CRC calculations : YesUsed interface : Native Win32 interface for Win NT & 2000
Used output format : User Defined EncoderSelected bitrate : 896 kBit/sQuality : HighAdd ID3 tag : NoCommand line compressor : C:\Users\user00\Desktop\EAC\App\EAC\Flac\flac.exeAdditional command line options : -8 -V -T "ARTIST=%artist%" -T "TITLE=%title%" -T "ALBUM=%albumtitle%" -T "DATE=%year%" -T "TRACKNUMBER=%tracknr%" -T "GENRE=%genre%" -T "PERFORMER=%albuminterpret%" -T "COMPOSER=%composer%" %haslyrics%–tag-from-file=LYRICS="%lyricsfile%"%haslyrics% -T "ALBUMARTIST=%albumartist%" -T "DISCNUMBER=%cdnumber%" -T "TOTALDISCS=%totalcds%" -T "TOTALTRACKS=%numtracks%" -T "COMMENT=%comment%" %source% -o %dest%
TOC of the extracted CD
Track | Start | Length | Start sector | End sector --------------------------------------------------------- 1 | 0:00.00 | 13:27.62 | 0 | 60586 2 | 13:27.62 | 6:35.00 | 60587 | 90211 3 | 20:02.62 | 5:14.00 | 90212 | 113761 4 | 25:16.62 | 5:22.00 | 113762 | 137911 5 | 30:38.62 | 12:53.00 | 137912 | 195886 6 | 43:31.62 | 7:10.00 | 195887 | 228136 7 | 50:41.62 | 15:17.00 | 228137 | 296911 8 | 65:58.62 | 9:09.13 | 296912 | 338099
Range status and errors
Selected range
Filename C:\Users\user00\Desktop\CDImage.wav
Peak level 100.0 % Extraction speed 24.0 X Range quality 100.0 % Test CRC 4DBE7601 Copy CRC 4DBE7601 Copy OK
No errors occurred
End of status report
---- CUETools DB Plugin V2.1.3
[CTDB TOCID: Ohi804Ge7s66raoVvuTIVbAi.lk-] found, Submit result: Ohi804Ge7s66raoVvuTIVbAi.lk- has been uploaded[b3975394] (1/1) No match
==== Log checksum 5D2D23C724926F632C3E6CD31B8021D8656FF810DBC17B09E907FB93D6770B34 ====

Содержание индексной карты (.CUE)

REM DATE 1996REM DISCID 5E119C08REM COMMENT "ExactAudioCopy v1.0b3"CATALOG 0710357548826PERFORMER "Brahms / Bruckner"TITLE "Brahms: String Quintet, Op. 111 / Bruckner: String Quintet (Brandis Quartet f..."FILE "CDImage.flac" WAVE TRACK 01 AUDIO TITLE "String Quintet in G major, Op. 111: I. Allegro non troppo, ma con brio" PERFORMER "Johannes Brahms" ISRC GBAJU9600178 INDEX 01 00:00:00 TRACK 02 AUDIO TITLE "String Quintet in G major, Op. 111: II. Adagio" PERFORMER "Johannes Brahms" ISRC GBAJU9600179 INDEX 01 13:27:62 TRACK 03 AUDIO TITLE "String Quintet in G major, Op. 111: III. Un poco allegretto" PERFORMER "Johannes Brahms" ISRC GBAJU9600180 INDEX 01 20:02:62 TRACK 04 AUDIO TITLE "String Quintet in G major, Op. 111: IV. Vivace ma non troppo presto" PERFORMER "Johannes Brahms" ISRC GBAJU9600181 INDEX 01 25:16:62 TRACK 05 AUDIO TITLE "String Quintet in F major: I. Gemassigt. Moderato" PERFORMER "Anton Bruckner" ISRC GBAJU9600182 INDEX 00 30:25:05 INDEX 01 30:38:62 TRACK 06 AUDIO TITLE "String Quintet in F major: II. Scherzo. Schnell-Trio. Langsamer" PERFORMER "Anton Bruckner" ISRC GBAJU9600183 INDEX 01 43:31:62 TRACK 07 AUDIO TITLE "String Quintet in F major: III. Adagio" PERFORMER "Anton Bruckner" ISRC GBAJU9600183 INDEX 01 50:41:62 TRACK 08 AUDIO TITLE "String Quintet in F major: IV. Finale. Lebhaft bewegt" PERFORMER "Anton Bruckner" ISRC GBAJU9600185 INDEX 01 65:58:62



Показать сообщения:    

Текущее время: 06-Дек 17:10

Часовой пояс: UTC + 3


Вы не можете начинать темы
Вы не можете отвечать на сообщения
Вы не можете редактировать свои сообщения
Вы не можете удалять свои сообщения
Вы не можете голосовать в опросах
Вы не можете прикреплять файлы к сообщениям
Вы не можете скачивать файлы