(Classical) Schubert - String Quartets Nos.13-15 & String Quintet (Hungarian Quartet, Laszlo Varga) - 2003, FLAC (image + .cue), lossless


 

[Цитировать]

Schubert - String Quartets Nos.13-15 & String Quintet (Hungarian Quartet, Laszlo Varga)
Жанр: Classical
Страна-производитель диска: EU
Год издания диска: 2003
Издатель (лейбл): EMI Classics
Номер по каталогу: 7243 5 85526 2 1
Дата записи: 1958-1970
Аудиокодек: FLAC
Тип рипа: image+.cue
Битрейт аудио: lossless
Продолжительность: CD1:78.47 / CD2:77.58
Источник: собственный рип
Наличие сканов в содержимом раздачи: да

Треклист

Disc 1
String Quintet in C Major, D 956with Laszlo Varga : violoncello 2Recorded in 1970
1. I. Allegro ma non troppo / 14.062. II. Adagio / 13.333. III. Scherzo: Presto - Trio: Andante sostenuto / 11.084. IV. Allegretto - Piu allegro - Piu presto / 9.46
String Quartet No.13 in A minor 'Rosamunde', D 804Recorded in 1958
5. I. Allegro ma non troppo / 8.566. II. Andante / 7.217. III. Minuetto. Allegretto / 7.018. IV. Allegro moderato / 6.29
Disc 2
String Quartet No.15 in G Major, D 887Recorded in 1968
1. I. Allegro molto moderato / 12.472. II. Andante un poco mosso / 10.223. III. Scherzo. Allegro vivace / 6.584. IV. Allegro assai / 10.01
String Quartet No.14 in D minor "Death and the Maiden", D 810Recorded in 1958
5. I. Allegro / 11.196. II. Andante con moto / 13.547. III. Scherzo. Allegro molto / 3.258. IV. Presto / 8.40
Исполнители:Hungarian Quartet,Laszlo Varga (Violoncello 2)

Лог создания рипаDISC 1

Exact Audio Copy V1.0 beta 4 from 7. December 2014
EAC extraction logfile from 19. October 2015, 11:17
Franz Schubert / Quintette à cordes D.956, Quatuors à cordes D.804, D.887, D810
Used drive : HL-DT-STDVDRAM GH24NS90 Adapter: 1 ID: 0
Read mode : SecureUtilize accurate stream : YesDefeat audio cache : NoMake use of C2 pointers : Yes
Read offset correction : 6Overread into Lead-In and Lead-Out : NoFill up missing offset samples with silence : YesDelete leading and trailing silent blocks : NoNull samples used in CRC calculations : YesUsed interface : Native Win32 interface for Win NT & 2000
Used output format : User Defined EncoderSelected bitrate : 896 kBit/sQuality : HighAdd ID3 tag : NoCommand line compressor : C:\Program Files (x86)\Exact Audio Copy\Flac\flac.exeAdditional command line options : -8 -V -T "ARTIST=%artist%" -T "TITLE=%title%" -T "ALBUM=%albumtitle%" -T "DATE=%year%" -T "TRACKNUMBER=%tracknr%" -T "GENRE=%genre%" -T "PERFORMER=%albuminterpret%" -T "COMPOSER=%composer%" %haslyrics%–tag-from-file=LYRICS="%lyricsfile%"%haslyrics% -T "ALBUMARTIST=%albumartist%" -T "DISCNUMBER=%cdnumber%" -T "TOTALDISCS=%totalcds%" -T "TOTALTRACKS=%numtracks%" -T "COMMENT=%comment%" %source% -o %dest%
TOC of the extracted CD
Track | Start | Length | Start sector | End sector --------------------------------------------------------- 1 | 0:00.00 | 14:08.10 | 0 | 63609 2 | 14:08.10 | 13:36.72 | 63610 | 124881 3 | 27:45.07 | 11:10.53 | 124882 | 175184 4 | 38:55.60 | 9:56.42 | 175185 | 219926 5 | 48:52.27 | 8:58.48 | 219927 | 260324 6 | 57:51.00 | 7:23.67 | 260325 | 293616 7 | 65:14.67 | 7:03.25 | 293617 | 325366 8 | 72:18.17 | 6:29.20 | 325367 | 354561
Range status and errors
Selected range
Filename F:\CD1.wav
Peak level 86.8 % Extraction speed 6.8 X Range quality 100.0 % Test CRC F7635B23 Copy CRC F7635B23 Copy OK
No errors occurred
AccurateRip summary
Track 1 accurately ripped (confidence 3) [6C27D8B6] (AR v2)Track 2 accurately ripped (confidence 3) [30E2549A] (AR v2)Track 3 accurately ripped (confidence 3) [41F056D8] (AR v2)Track 4 accurately ripped (confidence 3) [6C4E53B6] (AR v2)Track 5 accurately ripped (confidence 3) [988C01B0] (AR v2)Track 6 accurately ripped (confidence 3) [3858E6BF] (AR v2)Track 7 accurately ripped (confidence 3) [AD7355AE] (AR v2)Track 8 accurately ripped (confidence 3) [59A74004] (AR v2)
All tracks accurately ripped
End of status report
---- CUETools DB Plugin V2.1.4
[CTDB TOCID: .N_TE2RXDhDKJG5_nWumtRVaBec-] foundSubmit result: .N_TE2RXDhDKJG5_nWumtRVaBec- has been confirmedTrack | CTDB Status 1 | (4/4) Accurately ripped 2 | (4/4) Accurately ripped 3 | (4/4) Accurately ripped 4 | (4/4) Accurately ripped 5 | (3/4) Accurately ripped 6 | (4/4) Accurately ripped 7 | (4/4) Accurately ripped 8 | (4/4) Accurately ripped
==== Log checksum 992FCD36F1FD720C35C273E182B328AEDBE20F7F7E3BED89BE838D011647F002 ====

DISC 2

Exact Audio Copy V1.0 beta 4 from 7. December 2014
EAC extraction logfile from 19. October 2015, 11:35
Franz Schubert / Quintette à cordes D.956, Quatuors à cordes D.804, D.887, D810
Used drive : HL-DT-STDVDRAM GH24NS90 Adapter: 1 ID: 0
Read mode : SecureUtilize accurate stream : YesDefeat audio cache : NoMake use of C2 pointers : Yes
Read offset correction : 6Overread into Lead-In and Lead-Out : NoFill up missing offset samples with silence : YesDelete leading and trailing silent blocks : NoNull samples used in CRC calculations : YesUsed interface : Native Win32 interface for Win NT & 2000
Used output format : User Defined EncoderSelected bitrate : 896 kBit/sQuality : HighAdd ID3 tag : NoCommand line compressor : C:\Program Files (x86)\Exact Audio Copy\Flac\flac.exeAdditional command line options : -8 -V -T "ARTIST=%artist%" -T "TITLE=%title%" -T "ALBUM=%albumtitle%" -T "DATE=%year%" -T "TRACKNUMBER=%tracknr%" -T "GENRE=%genre%" -T "PERFORMER=%albuminterpret%" -T "COMPOSER=%composer%" %haslyrics%–tag-from-file=LYRICS="%lyricsfile%"%haslyrics% -T "ALBUMARTIST=%albumartist%" -T "DISCNUMBER=%cdnumber%" -T "TOTALDISCS=%totalcds%" -T "TOTALTRACKS=%numtracks%" -T "COMMENT=%comment%" %source% -o %dest%
TOC of the extracted CD
Track | Start | Length | Start sector | End sector --------------------------------------------------------- 1 | 0:00.00 | 12:53.25 | 0 | 57999 2 | 12:53.25 | 10:25.30 | 58000 | 104904 3 | 23:18.55 | 7:05.27 | 104905 | 136806 4 | 30:24.07 | 10:10.10 | 136807 | 182566 5 | 40:34.17 | 11:21.30 | 182567 | 233671 6 | 51:55.47 | 13:54.33 | 233672 | 296254 7 | 65:50.05 | 3:28.00 | 296255 | 311854 8 | 69:18.05 | 8:40.12 | 311855 | 350866
Range status and errors
Selected range
Filename F:\CD2.wav
Peak level 84.5 % Extraction speed 6.7 X Range quality 100.0 % Test CRC E5691685 Copy CRC E5691685 Copy OK
No errors occurred
AccurateRip summary
Track 1 accurately ripped (confidence 3) [AB4137CC] (AR v2)Track 2 accurately ripped (confidence 3) [41B205A2] (AR v2)Track 3 accurately ripped (confidence 3) [020F80B2] (AR v2)Track 4 accurately ripped (confidence 3) [37B88CF8] (AR v2)Track 5 accurately ripped (confidence 3) [F31B125C] (AR v2)Track 6 accurately ripped (confidence 3) [49F77DC3] (AR v2)Track 7 accurately ripped (confidence 3) [F96CC163] (AR v2)Track 8 accurately ripped (confidence 3) [BD2D0D5C] (AR v2)
All tracks accurately ripped
End of status report
---- CUETools DB Plugin V2.1.4
[CTDB TOCID: buHv55Vmvy9s69eKyQV9IWTyrQU-] foundSubmit result: buHv55Vmvy9s69eKyQV9IWTyrQU- has been confirmedTrack | CTDB Status 1 | (3/3) Accurately ripped 2 | (3/3) Accurately ripped 3 | (3/3) Accurately ripped 4 | (3/3) Accurately ripped 5 | (3/3) Accurately ripped 6 | (3/3) Accurately ripped 7 | (3/3) Accurately ripped 8 | (3/3) Accurately ripped
==== Log checksum 95A04E1E45DDEBFC0283EC613FB10FC80B6F2D564180B2EF54C92CB0282A2BAC ====

Содержание индексной карты (.CUE)

DISC 1

REM DATE 1992
REM DISCID 73127708
REM COMMENT "ExactAudioCopy v1.0b4"
CATALOG 0724358552720
PERFORMER "Franz Schubert"
TITLE "Quintette a cordes D.956, Quatuors a cordes D.804, D.887, D810"
FILE "CD1.flac" WAVE
TRACK 01 AUDIO
TITLE "Quintette pour 2 violons, alto et 2 violoncelles en ut majeur D956 : I Allegr..."
PERFORMER "Franz Schubert"
ISRC FRZ117204220
INDEX 01 00:00:00
TRACK 02 AUDIO
TITLE "Quintette pour 2 violons, alto et 2 violoncelles en ut majeur D956 : II Adagio"
PERFORMER "Franz Schubert"
ISRC FRZ117204230
INDEX 00 14:05:67
INDEX 01 14:08:10
TRACK 03 AUDIO
TITLE "Quintette pour 2 violons, alto et 2 violoncelles en ut majeur D956 : III Sche..."
PERFORMER "Franz Schubert"
ISRC FRZ117204240
INDEX 00 27:41:50
INDEX 01 27:45:07
TRACK 04 AUDIO
TITLE "Quintette pour 2 violons, alto et 2 violoncelles en ut majeur D956 : IV Alleg..."
PERFORMER "Franz Schubert"
ISRC FRZ117204250
INDEX 00 38:53:55
INDEX 01 38:55:60
TRACK 05 AUDIO
TITLE "Quatuor a cordes en la mineur, D.804 : I Allegro ma non troppo"
PERFORMER "Franz Schubert"
ISRC FRZ115904260
INDEX 00 48:42:37
INDEX 01 48:52:27
TRACK 06 AUDIO
TITLE "Quatuor a cordes en la mineur, D.804 : II Andante"
PERFORMER "Franz Schubert"
ISRC FRZ115904270
INDEX 00 57:48:65
INDEX 01 57:51:00
TRACK 07 AUDIO
TITLE "Quatuor a cordes en la mineur, D.804 : III Menuetto (allegretto)"
PERFORMER "Franz Schubert"
ISRC FRZ115904280
INDEX 00 65:12:47
INDEX 01 65:14:67
TRACK 08 AUDIO
TITLE "Quatuor a cordes en la mineur, D.804 : IV Allegro moderato"
PERFORMER "Franz Schubert"
ISRC FRZ115904290
INDEX 00 72:16:22
INDEX 01 72:18:17

DISC 2

REM DATE 1992
REM DISCID 64124608
REM COMMENT "ExactAudioCopy v1.0b4"
CATALOG 0724358552829
PERFORMER "Franz Schubert"
TITLE "Quintette a cordes D.956, Quatuors a cordes D.804, D.887, D810"
FILE "CD2.flac" WAVE
TRACK 01 AUDIO
TITLE "Quatuor a cordes en sol majeur, D887 : I Allegro molto moderato"
PERFORMER "Franz Schubert"
ISRC FRZ117004300
INDEX 01 00:00:00
TRACK 02 AUDIO
TITLE "Quatuor a cordes en sol majeur, D887 : II Andante un poco molto"
PERFORMER "Franz Schubert"
ISRC FRZ117004310
INDEX 00 12:47:20
INDEX 01 12:53:25
TRACK 03 AUDIO
TITLE "Quatuor a cordes en sol majeur, D887 : III Scherzo : allegro vivace"
PERFORMER "Franz Schubert"
ISRC FRZ117004320
INDEX 00 23:15:60
INDEX 01 23:18:55
TRACK 04 AUDIO
TITLE "Quatuor a cordes en sol majeur, D887 : IV Allegro assai"
PERFORMER "Franz Schubert"
ISRC FRZ117004330
INDEX 00 30:17:22
INDEX 01 30:24:07
TRACK 05 AUDIO
TITLE "Quatuor a cordes en re mineur, D.810 'La jeune fille et la mort' : I Allegro"
PERFORMER "Franz Schubert"
ISRC FRZ115904340
INDEX 00 40:25:05
INDEX 01 40:34:17
TRACK 06 AUDIO
TITLE "Quatuor a cordes en re mineur, D.810 'La jeune fille et la mort' : II Andante..."
PERFORMER "Franz Schubert"
ISRC FRZ115904350
INDEX 00 51:53:35
INDEX 01 51:55:47
TRACK 07 AUDIO
TITLE "Quatuor a cordes en re mineur, D.810 'La jeune fille et la mort' : III Scherz..."
PERFORMER "Franz Schubert"
ISRC FRZ115904360
INDEX 01 65:50:05
TRACK 08 AUDIO
TITLE "Quatuor a cordes en re mineur, D.810 'La jeune fille et la mort' : IV Presto"
PERFORMER "Franz Schubert"
ISRC FRZ115904370
INDEX 00 69:15:22
INDEX 01 69:18:05



Показать сообщения:    

Текущее время: 09-Дек 18:26

Часовой пояс: UTC + 3


Вы не можете начинать темы
Вы не можете отвечать на сообщения
Вы не можете редактировать свои сообщения
Вы не можете удалять свои сообщения
Вы не можете голосовать в опросах
Вы не можете прикреплять файлы к сообщениям
Вы не можете скачивать файлы