(Classical) Сергей Накаряков - Carmen Fantasy:Virtuoso Music for Trumpet (Waxman, Brand, Arban, Falla, Saint-Saens, Paganini, Чайковский, Faure, Sarasate) - 1996, FLAC (image+.cue) lossless


 

[Цитировать]

Сергей Накаряков - Carmen Fantasy:Virtuoso Music for Trumpet (Waxman, Brand, Arban, Falla, Saint-Saens, Paganini, Чайковский, Faure, Sarasate)
Жанр: Classical
Страна-производитель диска: South Korea
Год издания диска: 1996
Издатель (лейбл): Teldec
Номер по каталогу: 4509-94554-2
Дата записи: 1994
Аудиокодек: FLAC
Тип рипа: image+.cue
Битрейт аудио: lossless
Продолжительность: 58'36''
Источник: собственный рип
Наличие сканов в содержимом раздачи: да
Треклист:
1. Franz Waxman - Carmen Fantasy (on themes of Georges Bizet) / 10'11''
2. Willi Brandt - Concert Piece No.2 / 7'17''
3. Jean-Baptiste Arban - Variations on a Tyrolean Song / 5'44''
4. Manuel de Falla - Danza Espanola (from 'La vida breve') / 3'17''
5. Camille Saint-Saens - Le Cygne (from 'Le Carnaval des animaux') / 2'50''
6. Jean-Baptiste Arban - Variations on a Theme from Bellini's Norma / 5'15''
7. Niccolo Paganini - Caprice, Op.1 No.17 / 3'24''
8. Tchaikovsky - Valse-scherzo in C Major, Op.34 / 5'52''
9. Gabriel Faure - Apres un reve ('Levati sol que luna e levata'), Op.7 No.1 / 2'55''
10. Pablo de Sarasate - Zigeunerwisen, Op.20 No.1 / 6'46''
11. Niccolo Paganini - Moto perpetuo, Op.11 / 4'30''
Исполнители:
Sergei Nakariakov, trumpet
Alexander Markovich, piano

Лог создания рипа

Exact Audio Copy V1.0 beta 3 from 29. August 2011
EAC extraction logfile from 6. February 2016, 21:11
Sergei Nakariakov / Carmen Fantasy - Virtuoso Music For Trumpet
Used drive : HL-DT-STDVDRAM GH24NS90 Adapter: 3 ID: 1
Read mode : SecureUtilize accurate stream : YesDefeat audio cache : NoMake use of C2 pointers : Yes
Read offset correction : 6Overread into Lead-In and Lead-Out : NoFill up missing offset samples with silence : YesDelete leading and trailing silent blocks : NoNull samples used in CRC calculations : YesUsed interface : Native Win32 interface for Win NT & 2000
Used output format : User Defined EncoderSelected bitrate : 896 kBit/sQuality : HighAdd ID3 tag : NoCommand line compressor : C:\Program Files (Portable)\Exact_Audio_Copy_Portable\App\EAC\Flac\flac.exeAdditional command line options : -8 -V -T "ARTIST=%artist%" -T "TITLE=%title%" -T "ALBUM=%albumtitle%" -T "DATE=%year%" -T "TRACKNUMBER=%tracknr%" -T "GENRE=%genre%" -T "PERFORMER=%albuminterpret%" -T "COMPOSER=%composer%" %haslyrics%–tag-from-file=LYRICS="%lyricsfile%"%haslyrics% -T "ALBUMARTIST=%albumartist%" -T "DISCNUMBER=%cdnumber%" -T "TOTALDISCS=%totalcds%" -T "TOTALTRACKS=%numtracks%" -T "COMMENT=%comment%" %source% -o %dest%
TOC of the extracted CD
Track | Start | Length | Start sector | End sector --------------------------------------------------------- 1 | 0:00.00 | 10:13.27 | 0 | 46001 2 | 10:13.27 | 7:21.15 | 46002 | 79091 3 | 17:34.42 | 5:47.43 | 79092 | 105159 4 | 23:22.10 | 3:22.65 | 105160 | 120374 5 | 26:45.00 | 2:53.52 | 120375 | 133401 6 | 29:38.52 | 5:17.13 | 133402 | 157189 7 | 34:55.65 | 3:26.40 | 157190 | 172679 8 | 38:22.30 | 5:57.07 | 172680 | 199461 9 | 44:19.37 | 2:57.58 | 199462 | 212794 10 | 47:17.20 | 6:48.47 | 212795 | 243441 11 | 54:05.67 | 4:29.40 | 243442 | 263656
Range status and errors
Selected range
Filename C:\Users\maestro\Desktop\a\Sergei Nakariakov - Carmen Fantasy (Virtuoso Music for Trumpet) [Teldec, 1996]\CDImage.wav
Peak level 99.4 % Extraction speed 5.7 X Range quality 100.0 % Test CRC A716A331 Copy CRC A716A331 Copy OK
No errors occurred
AccurateRip summary
Track 1 cannot be verified as accurate (confidence 6) [E9A4D54A], AccurateRip returned [D6E7CB3D] (AR v2)Track 2 cannot be verified as accurate (confidence 6) [E1A9A610], AccurateRip returned [47B03A9C] (AR v2)Track 3 cannot be verified as accurate (confidence 6) [E1133244], AccurateRip returned [343C5C1B] (AR v2)Track 4 cannot be verified as accurate (confidence 6) [DE369FEA], AccurateRip returned [F705611A] (AR v2)Track 5 cannot be verified as accurate (confidence 6) [C1476270], AccurateRip returned [7752A339] (AR v2)Track 6 cannot be verified as accurate (confidence 6) [C1EC8E56], AccurateRip returned [CDE24589] (AR v2)Track 7 cannot be verified as accurate (confidence 6) [F5ACF837], AccurateRip returned [3E117BA1] (AR v2)Track 8 cannot be verified as accurate (confidence 6) [461E2C0D], AccurateRip returned [FABD4360] (AR v2)Track 9 cannot be verified as accurate (confidence 6) [956092F8], AccurateRip returned [CAEE5CE5] (AR v2)Track 10 cannot be verified as accurate (confidence 6) [EF02E0DB], AccurateRip returned [A83308D9] (AR v2)Track 11 cannot be verified as accurate (confidence 6) [A2FC895B], AccurateRip returned [11ABC9BD] (AR v2)
No tracks could be verified as accurateYou may have a different pressing from the one(s) in the database
End of status report
---- CUETools DB Plugin V2.1.3
[CTDB TOCID: xJ0._XZ8QVnD0xOOLthU.EkIGVM-] found, Submit result: xJ0._XZ8QVnD0xOOLthU.EkIGVM- has been confirmed[29d7a05a] (17/18) Accurately ripped[61ee1fd8] (01/18) No match
==== Log checksum 79E0A366A565970BE060E1F75A7DC4C385FB9162A21E9A40897DE1E8B4128083 ====

Содержание индексной карты (.CUE)

REM DISCID 910DBB0BREM COMMENT "ExactAudioCopy v1.0b3"CATALOG 4509945540207PERFORMER "Sergei Nakariakov"TITLE "Carmen Fantasy - Virtuoso Music For Trumpet"FILE "CDImage.flac" WAVE TRACK 01 AUDIO TITLE "Carmen Fantasy (on themes of Georges Bizet)" PERFORMER "Franz Waxman" ISRC DEA809416000 INDEX 01 00:00:00 TRACK 02 AUDIO TITLE "Concert Piece No. 2" PERFORMER "Willi Brandt" ISRC DEA809416100 INDEX 00 10:10:30 INDEX 01 10:13:27 TRACK 03 AUDIO TITLE "Variations on a Tyrolean Song" PERFORMER "Jean-Baptiste Arban" ISRC DEA809416200 INDEX 00 17:30:52 INDEX 01 17:34:42 TRACK 04 AUDIO TITLE "Danza Espanola (from 'La vida breve')" PERFORMER "Manuel de Falla" ISRC DEA809416300 INDEX 00 23:19:02 INDEX 01 23:22:10 TRACK 05 AUDIO TITLE "Le Cygne (from 'Le Carnaval des animaux')" PERFORMER "Camille Saint.Saens" ISRC DEA809416400 INDEX 00 26:39:42 INDEX 01 26:45:00 TRACK 06 AUDIO TITLE "Variations on a Theme from Bellini's Norma" PERFORMER "Jean-Baptiste Arban" ISRC DEA809416500 INDEX 00 29:35:35 INDEX 01 29:38:52 TRACK 07 AUDIO TITLE "Caprice, Op. 1 No. 17" PERFORMER "Niccolo Paganini" ISRC DEA809416600 INDEX 00 34:53:30 INDEX 01 34:55:65 TRACK 08 AUDIO TITLE "Valse-scherzo in C, Op. 34" PERFORMER "Пётр Ильич Чайковский" ISRC DEA809416700 INDEX 00 38:20:20 INDEX 01 38:22:30 TRACK 09 AUDIO TITLE "Apres un reve ('Levati sol que luna e levata'), Op. 7 No. 1" PERFORMER "Gabriel Faure" ISRC DEA809416800 INDEX 00 44:14:67 INDEX 01 44:19:37 TRACK 10 AUDIO TITLE "Zigeunerwisen, Op. 20 No. 1" PERFORMER "Pablo de Sarasate" ISRC DEA809416900 INDEX 00 47:14:52 INDEX 01 47:17:20 TRACK 11 AUDIO TITLE "Moto perpetuo, Op. 11" PERFORMER "Niccolo Paganini" ISRC DEA809417000 INDEX 00 54:02:62 INDEX 01 54:05:67
Доп. информация: Original Disc : Germany, 1994



Показать сообщения:    

Текущее время: 11-Дек 07:07

Часовой пояс: UTC + 3


Вы не можете начинать темы
Вы не можете отвечать на сообщения
Вы не можете редактировать свои сообщения
Вы не можете удалять свои сообщения
Вы не можете голосовать в опросах
Вы не можете прикреплять файлы к сообщениям
Вы не можете скачивать файлы