(Classical) Vita de la mia vita - Ricercares, Dances, Madrigals and Villanellas on Four Lutes - Quartetto di Liuti da Milano - 2014, FLAC (image+.cue) lossless


 

[Цитировать]

Vita de la mia vita - Ricercares, Dances, Madrigals and Villanellas on Four Lutes - Quartetto di Liuti da Milano
Жанр: Classical
Год издания диска: 2014
Издатель (лейбл): Brilliant Classics
Номер по каталогу: 95038
Дата записи: 2014
Аудиокодек: FLAC
Тип рипа: image+.cue
Битрейт аудио: lossless
Продолжительность: 54:29
Источник: собственный рип
Наличие сканов в содержимом раздачи: да
Треклист:
[1] Anonymous (16 th century, Italy): Pavana 'La Cornetta'
[2] Gioseffo Guami: La Lucchesina
[3] Girolamo Parabosco: Ricercare on 'Da Pacem Domine'
[4] Giovanni Giacomo Gastoldi: Il Ballerino
[5] Giovanni Giacomo Gastoldi: Vita de la mia vita
[6] Francesco da Milano: Fantasia No.33
[7] Lodovico Grossi da Viadana: La Fiorentina
[8] Luca Marenzio: Occhi dolci e soavi
[9] Giulio Segni: Ricercare
[10] Giorgio Mainerio: Ballo francese
[11] Francesco da Milano: Fantasia No.34 'La Compagna'
[12] Anonymous (16 th century, Italy): Gagliarda 'La Traditora'
[13] Francesco da Milano: Canone for two lutes
[14] Jacob Arcadelt: Il bianco e dolce cigno
[15] Francesco da Milano: La Spagna for two lutes
[16] Giovanni Pierluigi da Palestrina: Ahi che quest'occhi miei
[17] Pietro Paolo Raimondo: Vestiva i colli
[18] Giovanni Giacomo Gastoldi: Lo Sdegnato
[19] Adriano Banchieri: Felice chi vi mira
[20] Giovanni Maria Nanino: Uno spirito celeste
[21] Anonymous (16 th century, Italy): Il Bianco Fiore
Исполнители:
Quartetto di Liuti da Milano

Лог создания рипа

Exact Audio Copy V1.1 from 23. June 2015
EAC extraction logfile from 24. January 2016, 22:13
Quartetto di Liuti da Milano / Ricercares, Dances, Madrigals and Villanellas on Four Lutes
Used drive : HL-DT-STDVDRAM GU70N Adapter: 1 ID: 0
Read mode : SecureUtilize accurate stream : YesDefeat audio cache : YesMake use of C2 pointers : No
Read offset correction : 48Overread into Lead-In and Lead-Out : NoFill up missing offset samples with silence : YesDelete leading and trailing silent blocks : NoNull samples used in CRC calculations : YesUsed interface : Native Win32 interface for Win NT & 2000
Used output format : User Defined EncoderSelected bitrate : 128 kBit/sQuality : HighAdd ID3 tag : NoCommand line compressor : C:\Program Files (x86)\Exact Audio Copy\Flac\flac.exeAdditional command line options : -V -8 -T "Date=%year%" -T "Genre=%genre%" %source%
TOC of the extracted CD
Track | Start | Length | Start sector | End sector --------------------------------------------------------- 1 | 0:00.00 | 3:10.20 | 0 | 14269 2 | 3:10.20 | 2:32.08 | 14270 | 25677 3 | 5:42.28 | 2:41.53 | 25678 | 37805 4 | 8:24.06 | 1:39.43 | 37806 | 45273 5 | 10:03.49 | 2:17.26 | 45274 | 55574 6 | 12:21.00 | 3:27.23 | 55575 | 71122 7 | 15:48.23 | 2:33.15 | 71123 | 82612 8 | 18:21.38 | 2:12.55 | 82613 | 92567 9 | 20:34.18 | 4:00.23 | 92568 | 110590 10 | 24:34.41 | 3:09.43 | 110591 | 124808 11 | 27:44.09 | 3:23.21 | 124809 | 140054 12 | 31:07.30 | 2:47.09 | 140055 | 152588 13 | 33:54.39 | 2:35.27 | 152589 | 164240 14 | 36:29.66 | 3:07.12 | 164241 | 178277 15 | 39:37.03 | 2:17.20 | 178278 | 188572 16 | 41:54.23 | 1:38.61 | 188573 | 195983 17 | 43:33.09 | 3:23.69 | 195984 | 211277 18 | 46:57.03 | 1:19.09 | 211278 | 217211 19 | 48:16.12 | 1:45.65 | 217212 | 225151 20 | 50:02.02 | 2:23.51 | 225152 | 235927 21 | 52:25.53 | 2:04.08 | 235928 | 245235
Range status and errors
Selected range
Filename C:\temp\Vita de la mia vita\Ricercares, Dances, Madrigals and Villanellas on Four Lutes.wav
Peak level 97.7 % Extraction speed 5.1 X Range quality 100.0 % Test CRC 5BE0643B Copy CRC 5BE0643B Copy OK
No errors occurred
AccurateRip summary
Track 1 accurately ripped (confidence 1) [7E8FAA65] (AR v2)Track 2 accurately ripped (confidence 1) [119D4020] (AR v2)Track 3 accurately ripped (confidence 1) [454FC38E] (AR v2)Track 4 accurately ripped (confidence 1) [75344E46] (AR v2)Track 5 accurately ripped (confidence 1) [21F4EA19] (AR v2)Track 6 accurately ripped (confidence 1) [4E6408BD] (AR v2)Track 7 accurately ripped (confidence 1) [A8C6AEA3] (AR v2)Track 8 accurately ripped (confidence 1) [4C7ED856] (AR v2)Track 9 accurately ripped (confidence 1) [12A27C7B] (AR v2)Track 10 accurately ripped (confidence 1) [F41C1CD3] (AR v2)Track 11 accurately ripped (confidence 1) [8098B2AE] (AR v2)Track 12 accurately ripped (confidence 1) [E4F085AE] (AR v2)Track 13 accurately ripped (confidence 1) [21693E13] (AR v2)Track 14 accurately ripped (confidence 1) [E5AEDE5F] (AR v2)Track 15 accurately ripped (confidence 1) [149176AC] (AR v2)Track 16 accurately ripped (confidence 1) [529CB436] (AR v2)Track 17 accurately ripped (confidence 1) [C8BC8C74] (AR v2)Track 18 accurately ripped (confidence 1) [64EA9ABA] (AR v2)Track 19 accurately ripped (confidence 1) [26279D0F] (AR v2)Track 20 accurately ripped (confidence 1) [1BF64B2F] (AR v2)Track 21 accurately ripped (confidence 1) [C7C1EDBA] (AR v2)
All tracks accurately ripped
End of status report
==== Log checksum EA38939D5AC55465DC6E1A381558CF280322A660D0EA2340180331CAC0AC15E5 ====



Показать сообщения:    

Текущее время: 06-Дек 17:03

Часовой пояс: UTC + 3


Вы не можете начинать темы
Вы не можете отвечать на сообщения
Вы не можете редактировать свои сообщения
Вы не можете удалять свои сообщения
Вы не можете голосовать в опросах
Вы не можете прикреплять файлы к сообщениям
Вы не можете скачивать файлы