(Classical, Chamber) Kugel & Berezovsky plays Glinka, Rubinstein, Glazunov / Глинка, Рубинштейн, Глазунов (Михаил Кугель, альт, Борис Березовский, фортепиано) - 2014, FLAC (image+.cue), lossless


 

[Цитировать]

Kugel & Berezovsky plays Glinka, Rubinstein, Glazunov
Жанр: Classical, Chamber
Страна-производитель диска: Russia
Год издания диска: 2014
Издатель (лейбл): Мелодия
Номер по каталогу: MEL CD 10 02222
Дата записи: 2002, 2012-2013
Аудиокодек: FLAC
Тип рипа: image+.cue
Битрейт аудио: lossless
Продолжительность: 67.04
Источник: собственный рип
Наличие сканов в содержимом раздачи: да
Исполнители: Михаил Кугель, альт, Борис Березовский, фортепиано

Треклист:

Михаил Глинка: Соната для альта и фортепиано ре минор01. I. Allegro moderato02. II. Larghetto ma non troppo (Andante)03. Михаил Глинка: "Листок из альбома"Антон Рубинштейн: Соната для альта и фортепиано фа минор Op. 4904. I. Moderato05. II. Andante06. III. Moderato con moto07. IV. Allegro08. Александр Глазунов: "Элегия" Op. 4409. Игорь Стравинский: "Элегия" для альта соло10. Франц Шуберт - Генрих Вильгельм Эрнст: Большой каприс "Лесной Царь" Op. 2611. Генрих Вильгельм Эрнст: Интродукция, тема и вариации на тему песни "Последняя роза лета"
Total 67.04

Лог создания рипа:

Exact Audio Copy V1.0 beta 3 from 29. August 2011
Отчёт EAC об извлечении, выполненном 21. января 2016, 20:23
Michael Kugel viola, Boris Berezovsky piano / Kugel & Berezovsky plays Glinka, Rubinstein, Glazunov
Дисковод: Optiarc DVD RW AD-7260S Adapter: 0 ID: 1
Режим чтения : ДостоверностьИспользование точного потока : ДаОтключение кэша аудио : ДаИспользование указателей C2 : Нет
Коррекция смещения при чтении : 48Способность читать области Lead-in и Lead-out : НетЗаполнение пропущенных сэмплов тишиной : ДаУдаление блоков с тишиной в начале и конце : НетПри вычислениях CRC использовались нулевые сэмплы : ДаИнтерфейс : Встроенный Win32-интерфейс для Win NT/2000
Выходной формат : Пользовательский кодировщикВыбранный битрейт : 896 kBit/sКачество : ВысокийДобавление ID3-тега : НетУтилита сжатия : C:\Program Files\FLAC Frontend\tools\flac.exeДополнительные параметры : -V -8 -T "Date=%year%" -T "Genre=%genre%" %source%
TOC извлечённого CD
Трек | Старт | Длительность | Начальный сектор | Конечный сектор --------------------------------------------------------------------- 1 | 0:00.00 | 9:17.64 | 0 | 41838 2 | 9:17.64 | 6:30.48 | 41839 | 71136 3 | 15:48.37 | 2:43.55 | 71137 | 83416 4 | 18:32.17 | 8:37.13 | 83417 | 122204 5 | 27:09.30 | 5:20.45 | 122205 | 146249 6 | 32:30.00 | 6:17.11 | 146250 | 174535 7 | 38:47.11 | 6:23.12 | 174536 | 203272 8 | 45:10.23 | 5:31.49 | 203273 | 228146 9 | 50:41.72 | 3:59.19 | 228147 | 246090 10 | 54:41.16 | 3:52.12 | 246091 | 263502 11 | 58:33.28 | 8:28.63 | 263503 | 301665
Характеристики диапазона извлечения и сообщения об ошибках
Выбранный диапазон
Имя файла D:\EAC\Мои раздачи\Kugel & Berezovsky plays Glinka, Rubinstein, Glazunov\Michael Kugel viola, Boris Berezovsky piano - Kugel & Berezovsky plays Glinka, Rubinstein, Glazunov.wav
Пиковый уровень 86.1 % Скорость извлечения 4.3 X Качество диапазона 99.9 % CRC теста 107F71D3 CRC копии 107F71D3 Копирование... OK
Ошибок не произошло
AccurateRip: сводка
Трек 1 отсутствует в базе данныхТрек 2 отсутствует в базе данныхТрек 3 отсутствует в базе данныхТрек 4 отсутствует в базе данныхТрек 5 отсутствует в базе данныхТрек 6 отсутствует в базе данныхТрек 7 отсутствует в базе данныхТрек 8 отсутствует в базе данныхТрек 9 отсутствует в базе данныхТрек 10 отсутствует в базе данныхТрек 11 отсутствует в базе данных
Ни одного трека нет в базе AccurateRip
Конец отчёта
==== Контрольная сумма отчёта 83379C3581139BCEFA374A6162332CBBEF69D225ED8260485CD610B6057160E9 ====



Показать сообщения:    

Текущее время: 04-Дек 11:12

Часовой пояс: UTC + 3


Вы не можете начинать темы
Вы не можете отвечать на сообщения
Вы не можете редактировать свои сообщения
Вы не можете удалять свои сообщения
Вы не можете голосовать в опросах
Вы не можете прикреплять файлы к сообщениям
Вы не можете скачивать файлы