(Baroque) Ignaz Holzbauer - Chamber Works {Camerata Koln} - 1998, FLAC (tracks+.cue), lossless


 

[Цитировать]

Camerata Koln - Holzbauer: Chamber Works
Жанр: Baroque
Страна-производитель диска: Германия
Год издания диска: 1998
Издатель (лейбл): CPO
Номер по каталогу: 999 580-2
Аудиокодек: FLAC
Тип рипа: tracks+.cue
Битрейт аудио: lossless
Продолжительность: 56:02
Источник (релизер): merdenstein (what)
Наличие сканов в содержимом раздачи: да
Треклист:
Ignaz Holzbauer (1711-1783)
Quintet No.2 in B flat major for fortepiano, flute, violin, viola and violoncello
01. 1. Allegro (6:46)
02. 2. Andante (6:08)
03. 3. Menuetto - Trio con variazioni (6:55)
Sinfonia a 3 in G majorfor two violins and bass continuo
04. 1. Allegro spiritoso (2:20)
05. 2. Larghetto gustoso (5:41)
06. 3. Fuga villanesca: Allegro molto (2:10)
Divertimento a 3 in D major for flute, violin, double bass and guitar
07. 1. Andante (5:32)
08. 2. Largo (5:15)
09. 3. Allegro (3:06)
Quintet No.1 in G major for fortepiano, flute, violin, viola and violoncello
10. 1. Andante spiritoso (4:18)
11. 2. Menuetto: Grazioso - Trio con variazioni (7:51)
Исполнители:
Camerata Koln:
Sabine Bauer - fortepiano, harpsichord
Karl Kaiser - transverse flute
Sabine Lier - violin
Ingeborg Scheerer - viola, violin
Rainer Zipperling - violoncello, violone
Yasunori Imamura - baroque guitar
Recorded at Sendesaal Koln on January 5-9, 1998.

Лог создания рипа

Exact Audio Copy V1.0 beta 3 from 29. August 2011
EAC extraction logfile from 18. March 2013, 14:06
Camerata Koln / Ignaz Holzbauer - Chamber Works
Used drive : PLDS BD-RE DH-8B2SH Adapter: 0 ID: 0
Read mode : SecureUtilize accurate stream : YesDefeat audio cache : YesMake use of C2 pointers : No
Read offset correction : 6Overread into Lead-In and Lead-Out : NoFill up missing offset samples with silence : YesDelete leading and trailing silent blocks : NoNull samples used in CRC calculations : YesUsed interface : Native Win32 interface for Win NT & 2000Gap handling : Not detected, thus appended to previous track
Used output format : User Defined EncoderSelected bitrate : 768 kBit/sQuality : HighAdd ID3 tag : NoCommand line compressor : C:\Program Files (x86)\Exact Audio Copy\FLAC\FLAC.EXEAdditional command line options : -6 -V -T "ARTIST=%artist%" -T "TITLE=%title%" -T "ALBUM=%albumtitle%" -T "DATE=%year%" -T "TRACKNUMBER=%tracknr%" -T "GENRE=%genre%" -T "COMMENT=%comment%" -T "BAND=%albuminterpret%" -T "ALBUMARTIST=%albuminterpret%" -T "COMPOSER=%composer%" %haslyrics%--tag-from-file=LYRICS="%lyricsfile%"%haslyrics% -T "DISCNUMBER=%cdnumber%" -T "TOTALDISCS=%totalcds%" -T "TOTALTRACKS=%numtracks%" %hascover%--picture="%coverfile%"%hascover% %source% -o %dest%
TOC of the extracted CD
Track | Start | Length | Start sector | End sector --------------------------------------------------------- 1 | 0:00.00 | 6:46.25 | 0 | 30474 2 | 6:46.25 | 6:08.05 | 30475 | 58079 3 | 12:54.30 | 6:54.60 | 58080 | 89189 4 | 19:49.15 | 2:20.05 | 89190 | 99694 5 | 22:09.20 | 5:40.55 | 99695 | 125249 6 | 27:50.00 | 2:09.50 | 125250 | 134974 7 | 29:59.50 | 5:31.40 | 134975 | 159839 8 | 35:31.15 | 5:15.32 | 159840 | 183496 9 | 40:46.47 | 3:05.73 | 183497 | 197444 10 | 43:52.45 | 4:17.67 | 197445 | 216786 11 | 48:10.37 | 7:51.35 | 216787 | 252146
Track 1
Filename C:\EAC\01 Quintet for flute, violin, viola, cello & fortepiano in B flat- Allegro.wav
Peak level 58.8 % Extraction speed 3.7 X Track quality 99.9 % Test CRC 68E08087 Copy CRC 68E08087 Accurately ripped (confidence 2) [528B4058] (AR v1) Copy OK
Track 2
Filename C:\EAC\02 Quintet for flute, violin, viola, cello & fortepiano in B flat- Andante.wav
Peak level 39.6 % Extraction speed 5.6 X Track quality 100.0 % Test CRC EDCEA23D Copy CRC EDCEA23D Accurately ripped (confidence 2) [58E20730] (AR v1) Copy OK
Track 3
Filename C:\EAC\03 Quintet for flute, violin, viola, cello & fortepiano in B flat- Menuetto - Trio con variazioni.wav
Peak level 67.1 % Extraction speed 6.3 X Track quality 100.0 % Test CRC 3C564B85 Copy CRC 3C564B85 Accurately ripped (confidence 2) [04EC3290] (AR v1) Copy OK
Track 4
Filename C:\EAC\04 Symphony in G major- Allegro spiritoso.wav
Peak level 91.8 % Extraction speed 3.2 X Track quality 99.9 % Test CRC 84225EEC Copy CRC 84225EEC Accurately ripped (confidence 2) [166564F8] (AR v1) Copy OK
Track 5
Filename C:\EAC\05 Symphony in G major- Larghetto gustoso.wav
Peak level 86.6 % Extraction speed 7.0 X Track quality 100.0 % Test CRC 889654F9 Copy CRC 889654F9 Accurately ripped (confidence 2) [7AD7AD06] (AR v1) Copy OK
Track 6
Filename C:\EAC\06 Symphony in G major_ Fuga villanesca- Allegro molto.wav
Peak level 97.5 % Extraction speed 6.4 X Track quality 100.0 % Test CRC 8FF53718 Copy CRC 8FF53718 Accurately ripped (confidence 2) [CC65CC9C] (AR v1) Copy OK
Track 7
Filename C:\EAC\07 Divertimento in D major, for flute, violin, double bass and guitar- Andante.wav
Peak level 56.8 % Extraction speed 7.7 X Track quality 100.0 % Test CRC AFEE9249 Copy CRC AFEE9249 Accurately ripped (confidence 2) [F1E085A5] (AR v1) Copy OK
Track 8
Filename C:\EAC\08 Divertimento in D major, for flute, violin, double bass and guitar- Largo.wav
Peak level 58.9 % Extraction speed 8.0 X Track quality 100.0 % Test CRC A53071EF Copy CRC A53071EF Accurately ripped (confidence 2) [1F970622] (AR v1) Copy OK
Track 9
Filename C:\EAC\09 Divertimento in D major, for flute, violin, double bass and guitar- Allegro.wav
Peak level 59.1 % Extraction speed 7.8 X Track quality 100.0 % Test CRC C30839DD Copy CRC C30839DD Accurately ripped (confidence 2) [6A3A7790] (AR v1) Copy OK
Track 10
Filename C:\EAC\10 Quintet in G major for piano, flute, violin, viola & cello- Andante spiritoso.wav
Peak level 65.9 % Extraction speed 8.3 X Track quality 100.0 % Test CRC D31EEDFA Copy CRC D31EEDFA Accurately ripped (confidence 2) [667D2BA4] (AR v1) Copy OK
Track 11
Filename C:\EAC\11 Quintet in G major for piano, flute, violin, viola & cello- Menuetto- Grazioso - Trio Con Variazioni.wav
Peak level 61.0 % Extraction speed 7.1 X Track quality 99.9 % Test CRC 52A38D3D Copy CRC 52A38D3D Accurately ripped (confidence 2) [9A80CB5B] (AR v1) Copy OK
All tracks accurately ripped
No errors occurred
End of status report
==== Log checksum 9B7BFBC859ADA6A11B7C4D8EB5914C4119A35D4F57D0D0169D51C0160CCCF2B9 ====

Содержание индексной карты (.CUE)

REM GENRE ClassicalREM DATE 1998REM DISCID 8F0D210BREM COMMENT "ExactAudioCopy v1.0b3"PERFORMER "Camerata Koln"TITLE "Holzbauer: Chamber Works"FILE "01 - Quintet No.2 in B flat major- 1. Allegro.flac" WAVE TRACK 01 AUDIO TITLE "Quintet No.2 in B flat major: 1. Allegro" PERFORMER "Camerata Koln" INDEX 01 00:00:00FILE "02 - Quintet No.2 in B flat major- 2. Andante.flac" WAVE TRACK 02 AUDIO TITLE "Quintet No.2 in B flat major: 2. Andante" PERFORMER "Camerata Koln" INDEX 01 00:00:00FILE "03 - Quintet No.2 in B flat major- 3. Menuetto - Trio con variazioni.flac" WAVE TRACK 03 AUDIO TITLE "Quintet No.2 in B flat major: 3. Menuetto - Trio con variazioni" PERFORMER "Camerata Koln" INDEX 01 00:00:00FILE "04 - Sinfonia a 3 in G major- 1. Allegro spiritoso.flac" WAVE TRACK 04 AUDIO TITLE "Sinfonia a 3 in G major: 1. Allegro spiritoso" PERFORMER "Camerata Koln" INDEX 01 00:00:00FILE "05 - Sinfonia a 3 in G major- 2. Larghetto gustoso.flac" WAVE TRACK 05 AUDIO TITLE "Sinfonia a 3 in G major: 2. Larghetto gustoso" PERFORMER "Camerata Koln" INDEX 01 00:00:00FILE "06 - Sinfonia a 3 in G major- 3. Fuga villanesca- Allegro molto.flac" WAVE TRACK 06 AUDIO TITLE "Sinfonia a 3 in G major: 3. Fuga villanesca: Allegro molto" PERFORMER "Camerata Koln" INDEX 01 00:00:00FILE "07 - Divertimento a 3 in D major- 1. Andante.flac" WAVE TRACK 07 AUDIO TITLE "Divertimento a 3 in D major: 1. Andante" PERFORMER "Camerata Koln" INDEX 01 00:00:00FILE "08 - Divertimento a 3 in D major- 2. Largo.flac" WAVE TRACK 08 AUDIO TITLE "Divertimento a 3 in D major: 2. Largo" PERFORMER "Camerata Koln" INDEX 01 00:00:00FILE "09 - Divertimento a 3 in D major- 3. Allegro.flac" WAVE TRACK 09 AUDIO TITLE "Divertimento a 3 in D major: 3. Allegro" PERFORMER "Camerata Koln" INDEX 01 00:00:00FILE "10 - Quintet No.1 in G major- 1. Andante spiritoso.flac" WAVE TRACK 10 AUDIO TITLE "Quintet No.1 in G major: 1. Andante spiritoso" PERFORMER "Camerata Koln" INDEX 01 00:00:00FILE "11 - Quintet No.1 in G major- 2. Menuetto- Grazioso - Trio con variazioni.flac" WAVE TRACK 11 AUDIO TITLE "Quintet No.1 in G major: 2. Menuetto: Grazioso - Trio con variazioni" PERFORMER "Camerata Koln" INDEX 01 00:00:00

Отчет CUETools

[CUETools log; Date: 27.01.2016 0:00:46; Version: 2.1.5][CTDB TOCID: XvUlHhcjhOBIKt4np2_AaIRmp0U-] found.Track | CTDB Status 1 | (1/1) Accurately ripped 2 | (1/1) Accurately ripped 3 | (1/1) Accurately ripped 4 | (1/1) Accurately ripped 5 | (1/1) Accurately ripped 6 | (1/1) Accurately ripped 7 | (1/1) Accurately ripped 8 | (1/1) Accurately ripped 9 | (1/1) Accurately ripped 10 | (1/1) Accurately ripped 11 | (1/1) Accurately ripped[AccurateRip ID: 00179c75-00c7eaf7-8f0d210b] found.Track [ CRC | V2 ] Status 01 [528b4058|f4836afa] (2+0/2) Accurately ripped 02 [58e20730|afdfe38b] (2+0/2) Accurately ripped 03 [04ec3290|e240dfa1] (2+0/2) Accurately ripped 04 [166564f8|1fb7ead9] (2+0/2) Accurately ripped 05 [7ad7ad06|3220ec99] (2+0/2) Accurately ripped 06 [cc65cc9c|6d932c25] (2+0/2) Accurately ripped 07 [f1e085a5|a56ed126] (2+0/2) Accurately ripped 08 [1f970622|05a3dabe] (2+0/2) Accurately ripped 09 [6a3a7790|36276264] (2+0/2) Accurately ripped 10 [667d2ba4|d22f7f9e] (2+0/2) Accurately ripped 11 [9a80cb5b|ab10081e] (2+0/2) Accurately ripped
Track Peak [ CRC32 ] [W/O NULL] [ LOG ] -- 97,4 [08062D8A] [D6E2A9C0] 01 58,8 [68E08087] [BC8AA40A] CRC32 02 39,6 [EDCEA23D] [27AC8F08] CRC32 03 67,1 [3C564B85] [12315C75] CRC32 04 91,8 [84225EEC] [CB3F52C9] CRC32 05 86,6 [889654F9] [CEC2A813] CRC32 06 97,4 [8FF53718] [CA15758F] CRC32 07 56,8 [AFEE9249] [DF553757] CRC32 08 58,9 [A53071EF] [2CCB6548] CRC32 09 59,1 [C30839DD] [8AC6695B] CRC32 10 65,9 [D31EEDFA] [268A859C] CRC32 11 61,0 [52A38D3D] [E636D0E5] CRC32

Об альбоме (сборнике)

Viennese born Ignaz Holzbauer (1711-1783) abandoned the pursuit of a law degree to become a musician, traveling to Italy for study under Vivaldi and Albinoni. After his study there, he returned to assume the duties as director of the Viennese Imperial Court before being appointed Kapellmeister of the famed Mannheim orchestra. Renowned as an opera composer, he also wrote instrumental and liturgical works, including a setting of Psalm 51 for which Mozart composed 9 pieces. Numbered KV 297a, these have been lost. Also missing are most of the chamber music Holzbauer wrote. The author of perhaps as many as 196 symphonies, he composed the works on this disc as well.
A solo fortepiano opens the 1st movement ‘Allegro’ of the Quintet in B Flat, followed by the string trio and finally the flute. Sometimes the flute doubles the keyboard, often supplying a counter melody. Occasionally, the violin engages the other 2 solo voices, interweaving melodic threads with them. More often, she joins the other strings in what amounts to orchestral support.
A delicate ’Andante’ begins with a lovely duet between keyboard and the wind instrument with the string trio relegated to harmonic background. As the 2nd movement progresses, the flute recedes into an accompanimental role as well. A brisk ‘Mineutto’ closes the work, a marching triple meter with theme and variations. One features the unusual but successful pairing of the viola with the flute, while other variations showcase the cello accompanied by the keyboard and the string trio supported by leaping arpeggios in the left hand of the piano.
The Sinfonia in G Major is set for 2 violins and bass continuo. A gentlemanly swordfight emerges in the ‘Allegro spiritoso’ with the continuo line is shared by the cello and buzzing harpsichord while the two upper strings participate in genial jousting. The 2nd movement ‘Larghetto Gustoso’ turns mournful, sliding into a minor key. With the harpsichord silent, the solemn cello provides elegiac grounding as the 2nd violin acts as distant echo before the lead voice drifts to a pianissimo ending. Dancing upper strings are featured in the triple metered ‘Fuga Villanesca’ that concludes the work. The cello steps forward for a brief virtuosic flourish before combining with the violins for a spirited close.
A guitar leads the uncommon lineup of instruments on display in the Divertimento in D Major, joining a double bass for the basso continuo support for the violin and flute. In the opening ‘Andante’, dotted rhythms in drive the music as the upper voices carry the melodic lines, entwining and unwinding with a lovely hypnotic effect. The ‘Largo’ that follows showcases the soaring flute above the sustained pedal notes in the double bass, with lots of space provided by extensive fermatas. A strumming guitar gives this 2nd movement a Spanish flavor. The final ‘Allegro’ is a joyous dance full of rustic charm as the two top voices engage in frisky interplay.
Written in G Major, the two movement Quintet No.1 returns to same instrumental lineup as the opening piece. A stately ‘Andante spiritoso’ dips briefly in the melancholy of minor, but the overriding tone is one of good natured elegance with the tinkling fortepiano leading the way. Deliberate, almost hesitant, a triple metered ‘Minuetto Graziano’ closes the work. The machine gun runs of the keyboard contrast neatly with the swaying flute over the string support. The variations give Holzbauer the opportunity to match different combinations that offer a wide palette, flute and violin together, fortepiano with cello, and flute against lower strings. The effect is a kaleidoscopic array of colors and wonderful ending to the recording.
Camerata Koln brings a polished assurance to these works, and allow Holzbauer’s voice to be heard and appreciated. CPO’s recording is first-rate, sharp and clear enough so that the breath patterns of the excellent flutist, Karl Kaiser, are captured. It is a pity that so little chamber music of Ignaz Holzbauer survives. But we do have these to relish and enjoy.
-- bejart7092



Показать сообщения:    

Текущее время: 10-Дек 21:31

Часовой пояс: UTC + 3


Вы не можете начинать темы
Вы не можете отвечать на сообщения
Вы не можете редактировать свои сообщения
Вы не можете удалять свои сообщения
Вы не можете голосовать в опросах
Вы не можете прикреплять файлы к сообщениям
Вы не можете скачивать файлы