(Soundtrack) Малыш / Baby Boy (Music From The Motion Picture) (Various) - 2001, FLAC (image+.cue), lossless


Статистика раздачи [Обновить пиров]
Размер:  429 MB   |    Зарегистрирован:  10 месяцев 1 день   |    Скачан:  0 раз

Полного источника не было: Никогда

Личеров:  6  [  0 KB/s  ]   Подробная статистика пиров
 
   
 
 
 

[Цитировать]

Малыш / Baby Boy
Название альбома: Music From The Motion Picture
Жанр: Soundtrack
Композитор: Various
Год выпуска диска: 2001
Год выпуска фильма: 2001
Страна-производитель диска: EU
Издатель (лейбл): UMG Soundtracks/Universal/Sony
Номер по каталогу: 014 276-2
Аудиокодек: FLAC (*.flac)
Тип рипа: image+.cue
Битрейт аудио: lossless
Продолжительность: 01:07:35
Источник: собственный рип
Наличие сканов в содержимом раздачи: нет
Треклист:
01 Tyrese - The Womb (Intro)
02 Snoop Dogg Feat. Tyrese & Mr. Tan - Just A Baby Boy
03 Raphael Saadiq Feat. Devin The Dude - Just A Man
04 Tyrese & Taraji P. Henson - Focus (Interlude)
05 Three 6 Mafia Feat. La' Chat - Baby Mama
06 D'Angelo Feat. Marlon C - Talk S*** 2 Ya
07 Bootsy Collins - I'd Rather Be With You
08 Felicia Adams - You
09 Tyrese & Snoop Dogg - Jody Meets Rodney (Interlude)
10 Tha Eastsidaz Feat. Snoop Dogg - Crip Hop
11 B.G. Feat. Baby & Lac - Thatshowegetdown
12 Ving Rhames - Guns And Butter (Interlude)
13 Lost Angels - We Keep It G
14 Connie McKendrick - Eat Sleep Think
15 Marvin Gaye - Just To Keep You Satisfied
16 Tyrese & Taraji P. Henson - I Hate You (Interlude)
17 Anthony Hamilton Feat. Macy Gray - Love & War
18 The Transitions Feat. Gator - Straight *******
19 Felicia Adams - Baby Boy (Bonus Track)

Лог создания рипа

Exact Audio Copy V1.1 from 23. June 2015
EAC extraction logfile from 4. February 2016, 12:07
Various / Baby Boy Soundtrack
Used drive : TSSTcorpCDDVDW TS-L633C Adapter: 1 ID: 0
Read mode : SecureUtilize accurate stream : YesDefeat audio cache : YesMake use of C2 pointers : No
Read offset correction : 6Overread into Lead-In and Lead-Out : NoFill up missing offset samples with silence : YesDelete leading and trailing silent blocks : NoNull samples used in CRC calculations : YesUsed interface : Native Win32 interface for Win NT & 2000
Used output format : User Defined EncoderSelected bitrate : 768 kBit/sQuality : HighAdd ID3 tag : NoCommand line compressor : C:\Program Files (x86)\Exact Audio Copy\Flac\flac.exeAdditional command line options : -V -8 -T "Date=%year%" -T "Genre=%genre%" %source%
TOC of the extracted CD
Track | Start | Length | Start sector | End sector --------------------------------------------------------- 1 | 0:00.00 | 1:14.69 | 0 | 5618 2 | 1:14.69 | 4:16.33 | 5619 | 24851 3 | 5:31.27 | 3:59.53 | 24852 | 42829 4 | 9:31.05 | 0:22.54 | 42830 | 44533 5 | 9:53.59 | 4:44.47 | 44534 | 65880 6 | 14:38.31 | 4:35.24 | 65881 | 86529 7 | 19:13.55 | 4:55.45 | 86530 | 108699 8 | 24:09.25 | 4:45.71 | 108700 | 130145 9 | 28:55.21 | 0:30.61 | 130146 | 132456 10 | 29:26.07 | 5:03.63 | 132457 | 155244 11 | 34:29.70 | 4:17.08 | 155245 | 174527 12 | 38:47.03 | 0:30.54 | 174528 | 176831 13 | 39:17.57 | 4:44.58 | 176832 | 198189 14 | 44:02.40 | 3:36.48 | 198190 | 214437 15 | 47:39.13 | 4:24.08 | 214438 | 234245 16 | 52:03.21 | 0:41.44 | 234246 | 237364 17 | 52:44.65 | 5:21.45 | 237365 | 261484 18 | 58:06.35 | 4:59.50 | 261485 | 283959 19 | 63:06.10 | 4:28.68 | 283960 | 304127
Range status and errors
Selected range
Filename C:\Users\Music\12.RIPS\Various - Baby Boy Soundtrack.wav
Peak level 97.3 % Extraction speed 4.9 X Range quality 99.9 % Test CRC E9D148E4 Copy CRC E9D148E4 Copy OK
No errors occurred
AccurateRip summary
Track 1 accurately ripped (confidence 1) [A39ED2A2] (AR v1)Track 2 accurately ripped (confidence 1) [32B5B68E] (AR v1)Track 3 accurately ripped (confidence 1) [8789C5AC] (AR v1)Track 4 accurately ripped (confidence 1) [F532E7BA] (AR v1)Track 5 accurately ripped (confidence 1) [4E8D9393] (AR v1)Track 6 accurately ripped (confidence 1) [AC8DCC0A] (AR v1)Track 7 accurately ripped (confidence 1) [3D1C5BAB] (AR v1)Track 8 accurately ripped (confidence 1) [86DE85D0] (AR v1)Track 9 accurately ripped (confidence 1) [4D56A463] (AR v1)Track 10 accurately ripped (confidence 1) [6F800BCF] (AR v1)Track 11 accurately ripped (confidence 1) [B920752E] (AR v1)Track 12 accurately ripped (confidence 1) [DAA0BB3C] (AR v1)Track 13 accurately ripped (confidence 1) [666479C4] (AR v1)Track 14 accurately ripped (confidence 1) [563A8A73] (AR v1)Track 15 accurately ripped (confidence 1) [07AD8044] (AR v1)Track 16 accurately ripped (confidence 1) [A12924B1] (AR v1)Track 17 accurately ripped (confidence 1) [26A9A284] (AR v1)Track 18 accurately ripped (confidence 1) [A5797595] (AR v1)Track 19 accurately ripped (confidence 1) [AB5B476E] (AR v1)
All tracks accurately ripped
End of status report
---- CUETools DB Plugin V2.1.6
[CTDB TOCID: 3AQPHSUChT9k7kYRGPbyndA2ipg-] foundSubmit result: 3AQPHSUChT9k7kYRGPbyndA2ipg- has been confirmedTrack | CTDB Status 1 | (1/1) Accurately ripped 2 | (1/1) Accurately ripped 3 | (1/1) Accurately ripped 4 | (1/1) Accurately ripped 5 | (1/1) Accurately ripped 6 | (1/1) Accurately ripped 7 | (1/1) Accurately ripped 8 | (1/1) Accurately ripped 9 | (1/1) Accurately ripped 10 | (1/1) Accurately ripped 11 | (1/1) Accurately ripped 12 | (1/1) Accurately ripped 13 | (1/1) Accurately ripped 14 | (1/1) Accurately ripped 15 | (1/1) Accurately ripped 16 | (1/1) Accurately ripped 17 | (1/1) Accurately ripped 18 | (1/1) Accurately ripped 19 | (1/1) Accurately ripped
==== Log checksum E729718093AE40ADA0AA279AE97BD97C56D788B17C859395B60790E1BC5AB506 ====

Об альбоме (сборнике)

The rap songs from the Baby Boy soundtrack will no doubt garner the most attention, but for the most part, the numerous contemporary urban soul songs are what make this such a great album. Laid-back slow jams by D'Angelo, the Transitions, Raphael Saadiq, Felicia Adams, and a Anthony Hamilton/Macy Gray duet are all wonderful, lulling songs filling in the album's gaps. Furthermore, two classics -- Bootsy Collins' "I'd Rather Be With You" and Marvin Gaye's "Just to Keep You Satisfied" -- are welcome additions. Yet as commendable as these numerous soul songs may be for their mood-inducing effects, it's hard to miss the few big-time rap songs functioning as the soundtrack's selling points. In particular, "Just a Baby Boy" -- featuring Snoop Dogg, Tyrese, and Mr. Tan over a Battlecat production -- is yet another of Snoop's forays into R&B territory, with Mr. Tan doing the crooning; the one-time Doggfather seems to have found a new, more dynamic songwriting formula that makes his '90s work seem formative in comparison. Besides the Snoop track, Three 6 Mafia and La Chat's "Baby Mama" is essentially a rewrite of Project Pat's "Chicken Head," a sort of ghetto "Mrs. Jackson" that is a trademark Juicy J/DJ Paul production; BG's "Thatshowegetdown" also stands out, featuring a welcome new sound for Cash Money producer Mannie Fresh; and then there are two more Battlecat productions featuring tha Eastsidaz and Lost Angels, which are both fairly forgettable. It must be stressed again, though, that the numerous slow jams make this album such a success. Sure, the rap artists have the name recognition, but the contemporary urban soul artists are just as talented, as they prove here, even if they're names aren't as familiar. If you can appreciate rap as well as contemporary urban soul, this soundtrack should be a feast for you with its dynamic mix, alternating between interludes of film dialogue, big rap songs, and some smoking slow jams.
[teatrix.ru].t14785.torrent 
Торрент: Зарегистрирован [ 2016-02-09 12:50 ] · 9FA184FF78E5A0C8E8E08017C2F98EB335744104

Скачать .torrent

Скачать

18 KB

Статус: проверено
Скачан: 0 раз
Размер: 429 MB
terms.php



Быстрый ответ

Имя:

      
Для отправки сообщений необходимо включить JavaScript
Показать сообщения:    

Текущее время: 11-Дек 11:06

Часовой пояс: UTC + 3


Вы можете начинать темы
Вы можете отвечать на сообщения
Вы не можете редактировать свои сообщения
Вы не можете удалять свои сообщения
Вы не можете голосовать в опросах
Вы не можете прикреплять файлы к сообщениям
Вы можете скачивать файлы